<?xml version="1.0" standalone="no"?>
<!DOCTYPE svg PUBLIC "-//W3C//DTD SVG 1.1//EN" "http://www.w3.org/Graphics/SVG/1.1/DTD/svg11.dtd" >
<svg xmlns="http://www.w3.org/2000/svg" xmlns:xlink="http://www.w3.org/1999/xlink" version="1.1">
<metadata>
Created by FontForge 20170731 at Thu Nov 17 12:32:23 2016
 By Aleksey,,,
Copyright 2011 - 2016 The Montserrat Project Authors (julieta.ulanovsky@gmail.com)
</metadata>
<defs>
<font id="Montserrat-Regular" horiz-adv-x="0" >
  <font-face 
    font-family="Montserrat"
    font-weight="400"
    font-stretch="normal"
    units-per-em="1000"
    panose-1="0 0 5 0 0 0 0 0 0 0"
    ascent="800"
    descent="-200"
    x-height="532"
    cap-height="700"
    bbox="-296 -282 1489 1156"
    underline-thickness="50"
    underline-position="-200"
    unicode-range="U+000D-FB02"
  />
<missing-glyph horiz-adv-x="587" 
d="M40 0v700h507v-700h-507zM120 70h347v560h-347v-560z" />
    <glyph glyph-name="fi" unicode="fi" horiz-adv-x="627" 
d="M485 616q-29 0 -48 19.5t-19 48.5q0 30 19 49.5t48 19.5t48 -19.5t19 -49.5q0 -29 -19 -48.5t-48 -19.5zM107 564q0 89 54.5 136t128.5 47q57 0 99 -24l-4 -100q-51 23 -92 23q-72 0 -72 -71v-63h139v-86h-139v-426h-114v426h-70v86h70v52zM428 0v532h114v-532h-114z" />
    <glyph glyph-name="fl" unicode="fl" horiz-adv-x="651" 
d="M107 578q0 77 51.5 126t132.5 48q59 -2 99 -23l-3 -100q-34 26 -74 26q-40 1 -66 -25.5t-26 -68.5v-49h140l-1 -85h-139v-427h-114v427h-70l1 85h69v66zM446 742h115v-742h-115v742z" />
    <glyph glyph-name="f_f_i" unicode="ffi" horiz-adv-x="976" 
d="M834 616q-29 0 -48 19.5t-19 48.5q0 30 19 49.5t48 19.5t48 -19.5t19 -49.5q0 -29 -19 -48.5t-48 -19.5zM293 647q-31 0 -51.5 -18t-20.5 -54v-63h139v-86h-139v-426h-114v426h-70v86h70v52q0 88 54 135.5t129 47.5q70 0 120 -37l-44 -88q-34 25 -73 25zM456 564
q0 89 54.5 136t128.5 47q57 0 99 -24l-4 -100q-51 23 -92 23q-72 0 -72 -71v-63h139v-86h-139v-426h-114v426h-70v86h70v52zM777 0v532h114v-532h-114z" />
    <glyph glyph-name="f_f_l" unicode="ffl" horiz-adv-x="1000" 
d="M456 578q0 77 51.5 126t132.5 48q59 -2 99 -23l-3 -100q-34 26 -74 26q-40 1 -66 -25.5t-26 -68.5v-49h140l-1 -85h-139v-427h-114v427h-70l1 85h69v66zM293 647q-31 0 -51.5 -18t-20.5 -54v-63h139v-86h-139v-426h-114v426h-70v86h70v52q0 88 54 135.5t129 47.5
q70 0 120 -37l-44 -88q-34 25 -73 25zM795 742h115v-742h-115v742z" />
    <glyph glyph-name=".notdef" horiz-adv-x="587" 
d="M40 0v700h507v-700h-507zM120 70h347v560h-347v-560z" />
    <glyph glyph-name=".null" 
 />
    <glyph glyph-name="nonmarkingreturn" horiz-adv-x="333" 
 />
    <glyph glyph-name="NULL" 
 />
    <glyph glyph-name="NULL" 
 />
    <glyph glyph-name="CR" unicode="&#xd;" horiz-adv-x="300" 
 />
    <glyph glyph-name="space" unicode=" " horiz-adv-x="300" 
 />
    <glyph glyph-name="exclam" unicode="!" horiz-adv-x="210" 
d="M65 692h110v-173l-19 -296h-72l-19 296v173zM120 123q27 0 45 -18.5t18 -46.5q0 -29 -18 -48t-45 -19t-45 19t-18 48q0 28 18 46.5t45 18.5z" />
    <glyph glyph-name="quotedbl" unicode="&#x22;" horiz-adv-x="362" 
d="M60 700h88v-246h-88v246zM214 700h88v-246h-88v246z" />
    <glyph glyph-name="numbersign" unicode="#" horiz-adv-x="725" 
d="M689 435h-143l-22 -176h140l-8 -86h-142l-22 -173h-84l21 173h-177l-22 -173h-84l21 173h-140l8 86h143l21 176h-139l8 86h142l22 179h85l-22 -179h177l22 179h85l-22 -179h139zM440 259l21 176h-177l-22 -176h178z" />
    <glyph glyph-name="dollar" unicode="$" horiz-adv-x="622" 
d="M199 521q0 -35 28 -59.5t70 -36t91 -29t91 -37t69.5 -61t27.5 -100.5q0 -82 -58 -135t-155 -64v-141h-88v140q-144 12 -249 109l51 102q53 -49 116.5 -75.5t120.5 -26.5q62 0 96.5 22.5t34.5 62.5q0 36 -28 60.5t-70 36t-91 28t-91 35t-70 59.5t-28 99q0 79 56 130
t152 62v131l88 1v-131q116 -11 204 -70l-49 -104q-107 65 -205 65q-53 0 -83.5 -19t-30.5 -54z" />
    <glyph glyph-name="percent" unicode="%" horiz-adv-x="974" 
d="M223 702q86 0 135.5 -55.5t49.5 -152.5q0 -98 -49.5 -153.5t-135.5 -55.5t-135.5 55.5t-49.5 153.5q0 97 49.5 152.5t135.5 55.5zM685 700h110l-514 -700h-111zM223 635q-52 0 -80 -37t-28 -104q0 -68 28 -104.5t80 -36.5t80.5 37t28.5 104t-28.5 104t-80.5 37zM750 415
q86 0 135.5 -55.5t49.5 -152.5q0 -98 -49.5 -153.5t-135.5 -55.5t-135.5 55.5t-49.5 153.5q0 97 49.5 152.5t135.5 55.5zM750 348q-52 0 -80 -37t-28 -104q0 -68 28 -104.5t80 -36.5t80.5 37t28.5 104t-28.5 104t-80.5 37z" />
    <glyph glyph-name="ampersand" unicode="&#x26;" horiz-adv-x="663" 
d="M656 41l-59 -60q-20 20 -56.5 55.5t-52.5 51.5q-98 -93 -211 -93q-94 0 -157 56t-63 140q0 68 40 112t111 82q-67 90 -67 162q0 70 50.5 114t131.5 44q78 0 127.5 -41t49.5 -106q0 -34 -13.5 -63t-40.5 -52.5t-52 -39t-64 -36.5q50 -57 147 -152q36 54 63 126l75 -56
q-33 -79 -73 -133zM232 548q0 -53 52 -124q61 32 93 61.5t32 71.5q0 35 -23 55.5t-62 20.5q-41 0 -66.5 -24t-25.5 -61zM281 82q74 0 144 68q-119 119 -170 177q-49 -28 -76 -57.5t-27 -69.5q0 -52 37 -85t92 -33z" />
    <glyph glyph-name="quotesingle" unicode="'" horiz-adv-x="208" 
d="M60 700h88v-246h-88v246z" />
    <glyph glyph-name="parenleft" unicode="(" horiz-adv-x="319" 
d="M303 742q-118 -184 -118 -433t118 -433h-104q-122 176 -122 433t122 433h104z" />
    <glyph glyph-name="parenright" unicode=")" horiz-adv-x="345" 
d="M119 742h104q122 -176 122 -433t-122 -433h-104q118 184 118 433t-118 433z" />
    <glyph glyph-name="asterisk" unicode="*" horiz-adv-x="348" 
d="M144 721h60l-1 -103l89 52l30 -56l-90 -49l90 -51l-30 -56l-89 53l1 -103h-60l1 103l-89 -52l-31 55l90 51l-90 49l31 57l89 -53z" />
    <glyph glyph-name="plus" unicode="+" horiz-adv-x="498" 
d="M463 364v-79h-176v-175h-75v175h-177v79h177v175h75v-175h176z" />
    <glyph glyph-name="comma" unicode="," horiz-adv-x="214" 
d="M109 121q25 0 43 -17.5t18 -46.5q0 -27 -18 -53l-57 -86h-59l38 87q-27 18 -27 52q0 28 17.5 46t44.5 18z" />
    <glyph glyph-name="hyphen" unicode="-" horiz-adv-x="368" 
d="M61 344h246v-79h-246v79z" />
    <glyph glyph-name="period" unicode="." horiz-adv-x="218" 
d="M109 123q27 0 45 -18.5t18 -46.5q0 -29 -18 -48t-45 -19t-45 19t-18 48q0 28 18 46.5t45 18.5z" />
    <glyph glyph-name="slash" unicode="/" horiz-adv-x="331" 
d="M296 816h98l-317 -933h-98z" />
    <glyph glyph-name="zero" unicode="0" horiz-adv-x="617" 
d="M309 704q127 0 195 -91.5t68 -261.5q0 -171 -68 -262.5t-195 -91.5q-128 0 -196 91.5t-68 262.5q0 170 68.5 261.5t195.5 91.5zM309 612q-147 0 -147 -261q0 -262 147 -262q146 0 146 262q0 261 -146 261z" />
    <glyph glyph-name="one" unicode="1" horiz-adv-x="617" 
d="M106 701h269v-701h-118v595h-151v106z" />
    <glyph glyph-name="two" unicode="2" horiz-adv-x="617" 
d="M319 363q89 89 89 149q0 43 -32.5 66.5t-90.5 23.5q-100 0 -197 -87l-48 91q126 100 261 100q103 0 166.5 -48t63.5 -129q0 -92 -132 -229l-192 -194h358v-106h-513v87z" />
    <glyph glyph-name="three" unicode="3" horiz-adv-x="617" 
d="M331 406q100 -8 159.5 -57.5t59.5 -131.5q0 -99 -74.5 -160.5t-200.5 -61.5q-69 0 -137.5 20.5t-116.5 55.5l49 96q85 -73 197 -73q79 0 123.5 33t44.5 88q0 56 -44.5 85.5t-125.5 29.5h-102v68l205 197h-312l-1 105h460v-74l-225 -217z" />
    <glyph glyph-name="four" unicode="4" horiz-adv-x="617" 
d="M279 701h114l-232 -423h215l-1 165h110l1 -165h103v-106h-104v-172h-110v172h-341v88z" />
    <glyph glyph-name="five" unicode="5" horiz-adv-x="617" 
d="M199 443q31 1 104 1q118 0 189.5 -59.5t71.5 -152.5q0 -107 -73.5 -171.5t-196.5 -64.5q-64 0 -134.5 22t-124.5 58l48 96q93 -74 198 -74q73 0 115 33.5t42 92.5q0 54 -41.5 85t-113.5 31q-110 0 -193 -10v371h444v-106h-335v-152z" />
    <glyph glyph-name="six" unicode="6" horiz-adv-x="617" 
d="M514 564q-68 44 -155 44q-99 0 -149 -68.5t-46 -185.5q56 100 191 100q105 0 165.5 -60.5t60.5 -163.5q0 -108 -67.5 -171.5t-179.5 -63.5q-133 0 -209 90t-76 251q0 168 82 269t220 101q115 0 209 -53zM333 361q-69 0 -110 -39t-40 -95q-1 -51 37 -91t108 -40
q65 0 104 36t39 99q0 60 -37 95t-101 35z" />
    <glyph glyph-name="seven" unicode="7" horiz-adv-x="617" 
d="M48 701h533v-90l-295 -611h-125l289 595h-296l-1 -98h-105v204z" />
    <glyph glyph-name="eight" unicode="8" horiz-adv-x="617" 
d="M308 706q108 0 170.5 -48.5t62.5 -133.5q0 -50 -27 -89t-75 -60q64 -22 100.5 -69t36.5 -109q0 -94 -72 -148t-195 -54t-195 53.5t-72 146.5q0 63 38 110.5t104 69.5q-51 23 -79.5 63t-28.5 91q0 82 62.5 129.5t169.5 47.5zM309 621q-63 0 -98 -27t-35 -76t35 -76t98 -27
t97.5 27t34.5 76t-34.5 76t-97.5 27zM308 323q-74 0 -114.5 -30t-40.5 -85q0 -58 41 -89t115 -31t115 31t41 88q0 55 -41.5 85.5t-115.5 30.5z" />
    <glyph glyph-name="nine" unicode="9" horiz-adv-x="617" 
d="M107 137q68 -44 154 -44q99 0 148 68t46 186q-56 -100 -190 -100q-104 0 -164 60.5t-60 163.5q0 108 66.5 171.5t178.5 63.5q133 0 208.5 -90t75.5 -251q0 -168 -81.5 -269t-219.5 -101q-114 0 -208 53zM292 605q-64 0 -102.5 -36t-38.5 -99q0 -60 36.5 -95t99.5 -35
q69 0 109.5 39t39.5 95q1 51 -36.5 91t-107.5 40z" />
    <glyph glyph-name="colon" unicode=":" horiz-adv-x="218" 
d="M109 420q27 0 45 -18.5t18 -46.5q0 -29 -18 -48t-45 -19t-45 19t-18 48q0 28 18 46.5t45 18.5zM109 123q27 0 45 -18.5t18 -46.5q0 -29 -18 -48t-45 -19t-45 19t-18 48q0 28 18 46.5t45 18.5z" />
    <glyph glyph-name="semicolon" unicode=";" horiz-adv-x="216" 
d="M109 288q-27 0 -45 19t-18 48q0 28 18 46.5t45 18.5t45 -18.5t18 -46.5q0 -29 -18 -48t-45 -19zM109 121q25 0 43 -17.5t18 -46.5q0 -27 -18 -53l-57 -86h-59l38 87q-27 18 -27 52q0 28 17.5 46t44.5 18z" />
    <glyph glyph-name="less" unicode="&#x3c;" horiz-adv-x="498" 
d="M463 562v-89l-351 -147l351 -148v-89l-428 186v101z" />
    <glyph glyph-name="equal" unicode="=" horiz-adv-x="498" 
d="M35 469h428v-79h-428v79zM35 259h428v-79h-428v79z" />
    <glyph glyph-name="greater" unicode="&#x3e;" horiz-adv-x="498" 
d="M35 94v89l351 147l-351 148v89l428 -186v-101z" />
    <glyph glyph-name="question" unicode="?" horiz-adv-x="443" 
d="M5 496q3 95 58 147t149 52q92 0 146 -43.5t54 -123.5q0 -44 -16.5 -78.5t-39.5 -57.5t-46 -45t-39.5 -52t-16.5 -67h-88q0 44 14.5 78.5t35 56.5t40.5 42t34.5 46.5t14.5 59.5q0 42 -27.5 64t-75.5 22q-102 0 -107 -102zM209 123q27 0 45 -18.5t18 -46.5q0 -29 -18 -48
t-45 -19t-45 19t-18 48q0 28 18 46.5t45 18.5z" />
    <glyph glyph-name="at" unicode="@" horiz-adv-x="974" 
d="M714 149q0 -54 46 -54q38 0 66 49.5t28 124.5q0 152 -99 252t-262 100q-156 0 -264.5 -103t-108.5 -251q0 -146 103 -241.5t257 -95.5q110 0 193 59l41 -73q-43 -31 -109.5 -50t-124.5 -19q-191 0 -318.5 120t-127.5 300q0 184 132.5 309.5t326.5 125.5q193 0 320 -122
t127 -308q0 -112 -53 -180.5t-138 -68.5q-100 0 -116 81l-2 20q-61 -89 -172 -89q-94 0 -162.5 66t-68.5 168q0 101 61 170t159 69q58 0 102.5 -26.5t55.5 -48.5v65h108v-349zM469 408q-55 0 -89.5 -38.5t-34.5 -95.5q0 -59 35 -100t91 -41q58 0 93 40t35 100q0 58 -36 96.5
t-94 38.5z" />
    <glyph glyph-name="A" unicode="A" horiz-adv-x="738" 
d="M611 0l-67 158h-353l-67 -158h-123l309 700h121l306 -700h-126zM235 263h264l-132 311z" />
    <glyph glyph-name="B" unicode="B" horiz-adv-x="706" 
d="M396 700q109 0 172 -46.5t63 -128.5q0 -58 -33 -100t-90 -56q70 -12 110 -59t40 -118q0 -90 -68 -141t-187 -51h-311v700h304zM390 410q57 0 88.5 24.5t31.5 69.5q0 43 -32 67t-88 23h-180v-184h180zM390 106q69 -1 108 25.5t39 75.5q0 47 -39 73.5t-108 25.5h-180v-200
h180z" />
    <glyph glyph-name="C" unicode="C" horiz-adv-x="697" 
d="M599 509q-38 41 -90 65t-105 24q-105 0 -177.5 -71.5t-72.5 -174.5q0 -104 72.5 -175.5t177.5 -71.5q109 0 195 83l70 -78q-54 -53 -126 -84t-145 -31q-154 0 -259 102.5t-105 253.5q0 149 106.5 250.5t261.5 101.5q74 0 144.5 -28.5t121.5 -79.5z" />
    <glyph glyph-name="D" unicode="D" horiz-adv-x="775" 
d="M379 700q157 0 259.5 -99t102.5 -251t-103 -251t-262 -99h-284v700h287zM382 106q103 0 171.5 68.5t68.5 174.5t-70.5 175.5t-174.5 69.5h-167v-488h172z" />
    <glyph glyph-name="E" unicode="E" horiz-adv-x="656" 
d="M92 700h500v-106h-382v-190h342v-105h-342v-193h394v-106h-512v700z" />
    <glyph glyph-name="F" unicode="F" horiz-adv-x="575" 
d="M92 700h470l-1 -106h-351v-202h318v-105h-318v-287h-118v700z" />
    <glyph glyph-name="G" unicode="G" horiz-adv-x="749" 
d="M571 149v195h103v-258q-54 -41 -127.5 -66t-144.5 -25q-155 0 -261.5 102.5t-106.5 252.5t108 251.5t267 101.5q74 0 145.5 -26.5t123.5 -71.5l-67 -87q-86 80 -202 80q-107 0 -181 -72t-74 -176q0 -105 74.5 -177t181.5 -72q81 0 161 48z" />
    <glyph glyph-name="H" unicode="H" horiz-adv-x="791" 
d="M92 700h118v-304h371v304h118v-700h-118v290h-371v-290h-118v700z" />
    <glyph glyph-name="I" unicode="I" horiz-adv-x="302" 
d="M92 700h118v-700h-118v700z" />
    <glyph glyph-name="J" unicode="J" horiz-adv-x="499" 
d="M422 216q0 -105 -58 -163t-160 -58q-124 0 -206 101l56 90q71 -77 149 -77q48 0 74 28.5t26 82.5v374h-242v106h361v-484z" />
    <glyph glyph-name="K" unicode="K" horiz-adv-x="718" 
d="M701 0h-142l-230 309l-119 -131v-178h-118v700h118v-362l334 362h139l-271 -299z" />
    <glyph glyph-name="L" unicode="L" horiz-adv-x="534" 
d="M92 700h118v-593h303v-107h-421v700z" />
    <glyph glyph-name="M" unicode="M" horiz-adv-x="925" 
d="M92 700h140l231 -465l230 465h139v-700h-109l-1 523l-221 -450h-77l-221 450v-523h-111v700z" />
    <glyph glyph-name="N" unicode="N" horiz-adv-x="792" 
d="M92 700h116l375 -503v503h116v-700h-116l-373 502v-502h-118v700z" />
    <glyph glyph-name="O" unicode="O" horiz-adv-x="810" 
d="M405 703q157 0 264 -101.5t107 -251.5t-107 -252.5t-264 -102.5t-264 102.5t-107 252.5t107 251.5t264 101.5zM406 597q-104 0 -178 -71.5t-74 -175.5t74.5 -176.5t177.5 -72.5t176 72.5t73 176.5t-73 175.5t-176 71.5z" />
    <glyph glyph-name="P" unicode="P" horiz-adv-x="673" 
d="M371 700q132 0 204.5 -62.5t72.5 -176.5q0 -119 -72.5 -184.5t-204.5 -65.5h-161v-211h-118v700h279zM366 317q169 0 169 141q0 136 -169 136h-156v-277h156z" />
    <glyph glyph-name="Q" unicode="Q" horiz-adv-x="818" 
d="M770 6l47 -83q-87 -77 -190 -77q-65 0 -123 39t-100 110q-157 1 -263.5 103t-106.5 252t107 251.5t264 101.5t264 -101.5t107 -251.5q0 -119 -69.5 -210.5t-182.5 -126.5q60 -65 117 -65q55 0 129 58zM154 350q0 -104 74.5 -176.5t177.5 -72.5t176 72.5t73 176.5
t-73 175.5t-176 71.5q-104 0 -178 -71.5t-74 -175.5z" />
    <glyph glyph-name="R" unicode="R" horiz-adv-x="723" 
d="M670 0h-134l-128 212q-10 -1 -32 -1h-166v-211h-118v700h284q134 0 208 -62.5t74 -176.5q0 -84 -37.5 -142t-107.5 -85zM210 317h166q170 0 170 141q0 136 -170 136h-166v-277z" />
    <glyph glyph-name="S" unicode="S" horiz-adv-x="622" 
d="M518 529q-107 65 -205 65q-53 0 -83.5 -19t-30.5 -54t28 -59.5t70 -36t91 -29t91 -37t69.5 -61t27.5 -100.5q0 -92 -73.5 -147t-190.5 -55q-80 0 -155 30t-131 81l51 102q53 -49 116.5 -75.5t120.5 -26.5q62 0 96.5 22.5t34.5 62.5q0 36 -28 60.5t-70 36t-91 28t-91 35
t-70 59.5t-28 99q0 89 70 142t185 53q136 0 245 -72z" />
    <glyph glyph-name="T" unicode="T" horiz-adv-x="579" 
d="M9 700h561v-106h-222v-594h-118v594h-221v106z" />
    <glyph glyph-name="U" unicode="U" horiz-adv-x="764" 
d="M196 290q0 -88 50.5 -138.5t137.5 -50.5q86 0 135.5 50t49.5 139v410h118v-410q0 -137 -81 -216t-223 -79t-223.5 79t-81.5 216v410h118v-410z" />
    <glyph glyph-name="V" unicode="V" horiz-adv-x="690" 
d="M3 700h127l216 -569l218 569h123l-283 -700h-122z" />
    <glyph glyph-name="W" unicode="W" horiz-adv-x="1036" 
d="M3 700h127l170 -569l169 569h116l170 -569l169 569h122l-234 -700h-121l-166 546l-168 -546h-122z" />
    <glyph glyph-name="X" unicode="X" horiz-adv-x="692" 
d="M33 700h137l171 -243l172 243h138l-235 -336l255 -364h-141l-189 264l-188 -264h-138l255 359z" />
    <glyph glyph-name="Y" unicode="Y" horiz-adv-x="637" 
d="M636 700l-257 -467v-233h-117v229l-261 471h119l200 -341l196 341h120z" />
    <glyph glyph-name="Z" unicode="Z" horiz-adv-x="666" 
d="M50 700h573v-85l-426 -509h431v-106h-591v85l427 509h-414v106z" />
    <glyph glyph-name="bracketleft" unicode="[" horiz-adv-x="345" 
d="M92 742h227v-92h-124v-682h124v-92h-227v866z" />
    <glyph glyph-name="backslash" unicode="\" horiz-adv-x="545" 
d="M228 816l317 -933h-98l-317 933h98z" />
    <glyph glyph-name="bracketright" unicode="]" horiz-adv-x="473" 
d="M381 742v-866h-227v92h124v682h-124v92h227z" />
    <glyph glyph-name="asciicircum" unicode="^" horiz-adv-x="537" 
d="M505 132h-89l-147 323l-148 -323h-89l186 394h101z" />
    <glyph glyph-name="underscore" unicode="_" horiz-adv-x="566" 
d="M0 -134h566v-70h-566v70z" />
    <glyph glyph-name="grave" unicode="`" horiz-adv-x="350" 
d="M174 757l106 -148h-102l-122 98z" />
    <glyph glyph-name="a" unicode="a" horiz-adv-x="586" 
d="M517 0h-113v65q-57 -70 -176 -70q-85 0 -136 46.5t-51 118.5q0 73 53 116t148 44h161v16q0 51 -32.5 79t-94.5 28q-78 0 -157 -54l-47 80q61 36 109.5 51.5t119.5 15.5q102 0 158 -49.5t57 -137.5zM252 86q61 0 103.5 28.5t47.5 72.5v49h-144q-57 0 -83.5 -16.5
t-26.5 -54.5q0 -36 27.5 -57.5t75.5 -21.5z" />
    <glyph glyph-name="b" unicode="b" horiz-adv-x="680" 
d="M391 536q113 0 183.5 -75.5t70.5 -196.5q0 -120 -69 -194t-183 -74q-128 0 -188 96v-92h-115v742h115v-302q60 96 186 96zM367 94q71 0 116.5 48.5t45.5 125.5q0 75 -45.5 123.5t-116.5 48.5t-116.5 -48.5t-45.5 -123.5q0 -77 45.5 -125.5t116.5 -48.5z" />
    <glyph glyph-name="c" unicode="c" horiz-adv-x="564" 
d="M460 375q-60 61 -152 60q-69 0 -113.5 -47.5t-44.5 -122.5t44.5 -122.5t113.5 -47.5q102 0 157 64l64 -64q-75 -99 -226 -99q-119 0 -193.5 74.5t-74.5 194.5q0 121 74.5 196t193.5 75q144 0 220 -87z" />
    <glyph glyph-name="d" unicode="d" horiz-adv-x="682" 
d="M477 742h115v-742h-115v91q-59 -96 -187 -96q-114 0 -184.5 75.5t-70.5 197.5q0 120 70 194.5t183 74.5q128 0 189 -97v302zM314 91q72 0 117.5 48.5t45.5 124.5q0 77 -45.5 126t-117.5 49t-117.5 -49t-46.5 -126q1 -76 46.5 -124.5t117.5 -48.5z" />
    <glyph glyph-name="e" unicode="e" horiz-adv-x="588" 
d="M304 536q137 0 198.5 -82.5t50.5 -231.5h-402q14 -62 58 -97.5t107 -35.5q90 0 150 62l61 -65q-82 -90 -220 -90q-123 0 -197.5 74.5t-74.5 194.5t75 195t194 76zM149 306h304q-3 64 -43 101t-105 37q-63 0 -105 -37t-51 -101z" />
    <glyph glyph-name="f" unicode="f" horiz-adv-x="343" 
d="M293 647q-31 0 -51.5 -18t-20.5 -54v-63h139v-86h-139v-426h-114v426h-70v86h70v52q0 88 54 135.5t129 47.5q70 0 120 -37l-44 -88q-34 25 -73 25z" />
    <glyph glyph-name="g" unicode="g" horiz-adv-x="640" 
d="M451 532h114v-480q0 -114 -75 -181.5t-201 -67.5q-118 0 -221 70l49 83q78 -58 167 -58q76 0 121.5 41t45.5 110v67q-56 -90 -176 -90q-108 0 -174 71t-66 186q0 113 65 182.5t171 70.5q122 1 180 -90v86zM298 116q67 0 110 46t43 118t-42.5 117.5t-110.5 45.5
t-111 -45.5t-44 -117.5q1 -72 43.5 -118t111.5 -46z" />
    <glyph glyph-name="h" unicode="h" horiz-adv-x="669" 
d="M402 536q93 0 145.5 -54.5t52.5 -150.5v-331h-115v299q0 60 -34 94.5t-94 34.5q-70 -1 -111 -47.5t-41 -118.5v-262h-115v742h115v-314q55 108 197 108z" />
    <glyph glyph-name="i" unicode="i" horiz-adv-x="284" 
d="M142 753q29 0 48 -19.5t19 -49.5q0 -29 -19 -48.5t-48 -19.5t-48 19.5t-19 48.5q0 30 19 49.5t48 19.5zM85 532h114v-532h-114v532z" />
    <glyph glyph-name="j" unicode="j" horiz-adv-x="287" 
d="M141 754q31 0 51 -19.5t20 -50.5q0 -30 -20 -50t-51 -20q-30 0 -50 20t-20 50q0 31 20 50.5t50 19.5zM198 -15q0 -89 -51 -136.5t-121 -47.5q-62 0 -111 36l38 89q34 -24 68 -24q28 0 45.5 18t17.5 54v558h114v-547z" />
    <glyph glyph-name="k" unicode="k" horiz-adv-x="595" 
d="M451 0l-156 244l-90 -95v-149h-115v742h115v-448l235 238h132l-197 -206l212 -326h-136z" />
    <glyph glyph-name="l" unicode="l" horiz-adv-x="295" 
d="M90 742h115v-742h-115v742z" />
    <glyph glyph-name="m" unicode="m" horiz-adv-x="1043" 
d="M779 536q91 0 143 -55t52 -150v-331h-115v299q0 61 -33.5 95.5t-92.5 34.5q-67 -2 -106.5 -48.5t-39.5 -117.5v-263h-115v299q0 61 -33.5 95.5t-91.5 34.5q-68 -2 -108 -48.5t-40 -117.5v-263h-114v532h114v-103q53 107 193 107q71 0 118.5 -33.5t66.5 -94.5
q49 128 202 128z" />
    <glyph glyph-name="n" unicode="n" horiz-adv-x="663" 
d="M396 536q93 0 145.5 -54.5t52.5 -150.5v-331h-115v299q0 60 -34 94.5t-94 34.5q-64 -1 -104.5 -41t-46.5 -104v-283h-115v532h115v-102q54 106 196 106z" />
    <glyph glyph-name="o" unicode="o" horiz-adv-x="625" 
d="M313 536q123 0 200 -74.5t77 -194.5q0 -121 -77 -196t-200 -75q-124 0 -201 75t-77 196q0 120 77 194.5t201 74.5zM313 438q-72 0 -117.5 -48.5t-45.5 -124.5q0 -77 45.5 -125t117.5 -48t117 48t45 125q0 76 -45.5 124.5t-116.5 48.5z" />
    <glyph glyph-name="p" unicode="p" horiz-adv-x="680" 
d="M391 536q113 0 183.5 -75.5t70.5 -196.5q0 -120 -69 -194t-183 -74q-128 0 -188 96v-286h-115v726h115v-92q60 96 186 96zM367 94q71 0 116.5 48.5t45.5 125.5q0 75 -45.5 123.5t-116.5 48.5t-116.5 -48.5t-45.5 -123.5q0 -77 45.5 -125.5t116.5 -48.5z" />
    <glyph glyph-name="q" unicode="q" horiz-adv-x="682" 
d="M477 532h115v-726h-115v285q-59 -96 -187 -96q-114 0 -184.5 75.5t-70.5 197.5q0 120 70 194.5t183 74.5q128 0 189 -97v92zM314 91q72 0 117.5 48.5t45.5 124.5q0 77 -45.5 126t-117.5 49t-117.5 -49t-46.5 -126q1 -76 46.5 -124.5t117.5 -48.5z" />
    <glyph glyph-name="r" unicode="r" horiz-adv-x="394" 
d="M200 426q55 110 184 110v-110q-79 4 -128 -37t-56 -111v-278h-115v532h115v-106z" />
    <glyph glyph-name="s" unicode="s" horiz-adv-x="470" 
d="M388 398q-76 47 -153 47q-78 0 -78 -53q0 -26 29 -43t70.5 -28.5t83 -27t70.5 -50.5t29 -89q0 -77 -58.5 -117.5t-145.5 -40.5q-60 0 -117.5 19.5t-96.5 54.5l41 82q34 -30 83.5 -48t94.5 -18q39 0 63 14t24 43q0 30 -29 48t-70 29t-82 26t-69.5 49.5t-28.5 87.5
q0 76 56.5 115t139.5 39q110 0 186 -54z" />
    <glyph glyph-name="t" unicode="t" horiz-adv-x="407" 
d="M357 122l29 -88q-66 -39 -131 -39t-107 39t-42 116v276h-75v86h75v146h114v-146h157v-86h-157v-255q0 -40 14 -56t43 -16q32 0 80 23z" />
    <glyph glyph-name="u" unicode="u" horiz-adv-x="653" 
d="M453 532h115v-532h-115v104q-52 -106 -190 -108q-91 0 -143 55t-52 150v331h115v-299q0 -60 33 -94.5t91 -34.5q67 1 106.5 47.5t39.5 118.5v262z" />
    <glyph glyph-name="v" unicode="v" horiz-adv-x="525" 
d="M1 532h120l148 -419l146 419h115l-204 -532h-119z" />
    <glyph glyph-name="w" unicode="w" horiz-adv-x="893" 
d="M1 532h118l138 -418l134 418h119l135 -418l136 418h117l-194 -532h-119l-135 394l-135 -394h-118z" />
    <glyph glyph-name="x" unicode="x" horiz-adv-x="554" 
d="M27 532h132l119 -182l121 182h126l-171 -259l183 -273h-132l-127 195l-136 -195h-128l188 273z" />
    <glyph glyph-name="y" unicode="y" horiz-adv-x="531" 
d="M294 -73q-50 -126 -173 -126q-69 0 -123 45l49 89q36 -26 69 -26q54 0 81 59l18 40l-220 524h119l159 -403l148 403h115z" />
    <glyph glyph-name="z" unicode="z" horiz-adv-x="537" 
d="M54 532l437 -1v-77l-304 -360l313 -1v-94l-455 1v78l304 360h-295v94z" />
    <glyph glyph-name="braceleft" unicode="{" horiz-adv-x="329" 
d="M214 416q0 -48 -16 -73t-54 -34q38 -10 54 -35t16 -73v-164q0 -38 21.5 -54.5t73.5 -16.5v-92h-43q-84 0 -120 29t-36 99v206q0 28 -10 40.5t-33 12.5h-31v95h31q23 0 33 12.5t10 40.5v207q0 69 36 98t120 29h43v-92q-52 0 -73.5 -16.5t-21.5 -54.5v-164z" />
    <glyph glyph-name="bar" unicode="|" horiz-adv-x="269" 
d="M91 810h87v-926h-87v926z" />
    <glyph glyph-name="braceright" unicode="}" horiz-adv-x="402" 
d="M371 356h31v-95h-31q-23 0 -33 -12.5t-10 -40.5v-206q0 -70 -36 -99t-120 -29h-43v92q52 0 73.5 16.5t21.5 54.5v164q0 48 16 73t54 35q-38 9 -54 34t-16 73v164q0 38 -21.5 54.5t-73.5 16.5v92h43q84 0 120 -29t36 -98v-207q0 -28 10 -40.5t33 -12.5z" />
    <glyph glyph-name="asciitilde" unicode="~" horiz-adv-x="498" 
d="M433 388q0 -140 -97 -140q-37 0 -85.5 28.5t-65.5 28.5q-39 0 -39 -50h-80q0 140 97 140q35 0 84.5 -28.5t67.5 -28.5q39 0 39 50h79z" />
    <glyph glyph-name="uni00A0" unicode="&#xa0;" horiz-adv-x="300" 
 />
    <glyph glyph-name="exclamdown" unicode="&#xa1;" horiz-adv-x="210" 
d="M120 408q-27 0 -45 18.5t-18 46.5q0 29 18 48t45 19t45 -19t18 -48q0 -28 -18 -46.5t-45 -18.5zM175 -161h-110v173l19 296h72l19 -296v-173z" />
    <glyph glyph-name="cent" unicode="&#xa2;" horiz-adv-x="600" 
d="M529 95q-62 -83 -180 -96v-141h-87v141q-103 13 -165 85t-62 181q0 110 62 182.5t165 85.5v151h87v-151q111 -12 174 -84l-63 -74q-60 61 -152 60q-69 0 -113.5 -47.5t-44.5 -122.5t44.5 -122.5t113.5 -47.5q102 0 157 64z" />
    <glyph glyph-name="sterling" unicode="&#xa3;" horiz-adv-x="547" 
d="M238 298v-202h280v-96h-481v96h83v202h-83v84h83v101q0 106 55.5 164t157.5 58q119 0 198 -90l-47 -92q-64 76 -139 76q-107 0 -107 -119v-98h176v-84h-176z" />
    <glyph glyph-name="currency" unicode="&#xa4;" horiz-adv-x="711" 
d="M625 319q0 -83 -51 -152l102 -102l-65 -69l-106 105q-68 -44 -150 -44q-81 0 -149 44l-106 -105l-65 69l102 102q-50 69 -50 152q0 82 48 151l-100 100l65 69l103 -103q69 47 152 47t153 -46l103 102l65 -69l-100 -100q49 -68 49 -151zM355 155q74 0 126.5 48t52.5 116
q0 69 -52.5 118t-126.5 49q-73 0 -124.5 -49t-51.5 -118q0 -68 51.5 -116t124.5 -48z" />
    <glyph glyph-name="yen" unicode="&#xa5;" horiz-adv-x="635" 
d="M635 700l-212 -386h151v-75h-192l-3 -5v-56h195v-76h-195v-102h-118v102h-187v76h187v51l-5 10h-182v75h140l-214 386h119l200 -341l196 341h120z" />
    <glyph glyph-name="brokenbar" unicode="&#xa6;" horiz-adv-x="269" 
d="M91 810h87v-346h-87v346zM91 230h87v-346h-87v346z" />
    <glyph glyph-name="section" unicode="&#xa7;" horiz-adv-x="499" 
d="M412 567q-80 46 -152 46q-44 0 -70.5 -16.5t-26.5 -42.5q0 -31 31.5 -50.5t76.5 -32.5t89.5 -29t76 -50t31.5 -86q0 -43 -31 -79t-77 -50q46 -20 66.5 -46t20.5 -68q0 -65 -56.5 -106.5t-148.5 -41.5q-128 0 -221 76l35 74q86 -68 183 -68q46 0 75.5 18t29.5 45
q0 30 -31 50.5t-75.5 33.5t-89 29t-75.5 50t-31 84q0 47 32.5 80t89.5 47q-56 23 -78.5 49.5t-22.5 66.5q0 64 54 104t142 40q101 0 189 -53zM242 376q-47 0 -73.5 -16.5t-26.5 -44.5q0 -35 36.5 -57.5t90.5 -22.5q47 0 72 17.5t25 46.5q0 34 -35 55.5t-89 21.5z" />
    <glyph glyph-name="dieresis" unicode="&#xa8;" horiz-adv-x="367" 
d="M95 747q26 0 43.5 -18t17.5 -45q0 -26 -18 -44.5t-43 -18.5q-26 0 -43.5 18.5t-17.5 44.5q0 28 17.5 45.5t43.5 17.5zM272 747q26 0 43.5 -18t17.5 -45q0 -26 -18 -44.5t-43 -18.5q-26 0 -43.5 18.5t-17.5 44.5q0 28 17.5 45.5t43.5 17.5z" />
    <glyph glyph-name="copyright" unicode="&#xa9;" horiz-adv-x="745" 
d="M373 689q142 0 240 -99.5t98 -239.5t-99 -240.5t-241 -100.5q-141 0 -239 99.5t-98 239.5t98.5 240.5t240.5 100.5zM373 629q-119 0 -200.5 -82.5t-81.5 -198.5t81 -197.5t199 -81.5q119 0 201 82.5t82 198.5t-81.5 197.5t-199.5 81.5zM474 425q-42 42 -95 42
q-51 0 -86 -34t-35 -83q0 -50 35 -84.5t86 -34.5q53 0 95 40l35 -39q-58 -56 -133 -56t-126.5 50t-51.5 123t52 122t128 49t131 -53z" />
    <glyph glyph-name="ordfeminine" unicode="&#xaa;" horiz-adv-x="385" 
d="M198 777q65 0 101 -30t36 -83v-206h-79v50q-38 -53 -115 -53q-50 0 -79 26t-29 69t32.5 66.5t92.5 24.5h97v14q0 59 -76 59q-47 0 -107 -30l-20 56q77 37 146 37zM168 509q61 0 87 49v42h-81q-65 0 -65 -43q0 -22 16 -35t43 -13z" />
    <glyph glyph-name="guillemotleft" unicode="&#xab;" horiz-adv-x="456" 
d="M139 434h96l-107 -174l107 -174h-96l-116 174zM319 434h96l-107 -174l107 -174h-96l-116 174z" />
    <glyph glyph-name="logicalnot" unicode="&#xac;" horiz-adv-x="561" 
d="M486 404v-259h-84v180h-367v79h451z" />
    <glyph glyph-name="uni00AD" unicode="&#xad;" horiz-adv-x="368" 
d="M61 344h246v-79h-246v79z" />
    <glyph glyph-name="registered" unicode="&#xae;" horiz-adv-x="745" 
d="M373 689q142 0 240 -99.5t98 -239.5t-99 -240.5t-241 -100.5q-141 0 -239 99.5t-98 239.5t98.5 240.5t240.5 100.5zM371 69q119 0 201 82.5t82 198.5t-81.5 197.5t-199.5 81.5q-119 0 -200.5 -82.5t-81.5 -198.5t81 -197.5t199 -81.5zM517 412q0 -81 -71 -109l78 -113
h-66l-63 102h-15h-79v-102h-57v338h136q66 0 101.5 -30t35.5 -86zM301 340h79q39 0 61 18.5t22 52.5q0 33 -22 51t-61 18h-79v-140z" />
    <glyph glyph-name="macron" unicode="&#xaf;" horiz-adv-x="350" 
d="M48 724h255v-83h-255v83z" />
    <glyph glyph-name="degree" unicode="&#xb0;" horiz-adv-x="346" 
d="M197 810q48 0 82 -34t34 -81t-34 -81t-82 -34q-47 0 -81.5 34t-34.5 81t34 81t82 34zM197 759q-28 0 -47.5 -19t-19.5 -45t19.5 -44.5t47.5 -18.5t47.5 18.5t19.5 44.5t-19.5 45t-47.5 19z" />
    <glyph glyph-name="plusminus" unicode="&#xb1;" horiz-adv-x="498" 
d="M287 430h176v-78h-176v-171h-75v171h-177v78h177v171h75v-171zM35 20v79h428v-79h-428z" />
    <glyph glyph-name="uni00B2" unicode="&#xb2;" horiz-adv-x="383" 
d="M194 577q49 49 49 83q0 22 -17 34.5t-48 12.5q-57 0 -117 -52l-33 61q77 60 163 60q62 0 100.5 -28.5t38.5 -76.5q0 -59 -80 -136l-108 -108h206v-67h-311v57z" />
    <glyph glyph-name="uni00B3" unicode="&#xb3;" horiz-adv-x="355" 
d="M203 599q53 -5 85 -34.5t32 -77.5q0 -59 -43.5 -95.5t-115.5 -36.5q-89 0 -150 46l35 65q47 -47 109 -47q39 0 61 18t22 49q0 61 -84 61h-62v47l112 113h-173v63h269v-49l-119 -120z" />
    <glyph glyph-name="acute" unicode="&#xb4;" horiz-adv-x="350" 
d="M168 757l118 -50l-122 -98h-102z" />
    <glyph glyph-name="uni00B5" unicode="&#xb5;" horiz-adv-x="675" 
d="M475 532h115v-532h-115v104q-52 -106 -190 -108q-41 0 -80 13v-203h-115v726h115v-299q0 -60 33 -94.5t91 -34.5q67 1 106.5 47.5t39.5 118.5v262z" />
    <glyph glyph-name="paragraph" unicode="&#xb6;" horiz-adv-x="615" 
d="M217 356h-31q-53 0 -91.5 18.5t-58 48.5t-28.5 60.5t-9 61.5q0 83 56 140t169 57h299v-851h-88v779h-131v-779h-87v465z" />
    <glyph glyph-name="periodcentered" unicode="&#xb7;" horiz-adv-x="212" 
d="M106 349q26 0 43 -17.5t17 -44.5q0 -28 -17 -46t-43 -18t-43 18t-17 46q0 27 17 44.5t43 17.5z" />
    <glyph glyph-name="cedilla" unicode="&#xb8;" horiz-adv-x="350" 
d="M202 -50q32 -6 51 -26.5t19 -52.5q0 -43 -30.5 -69t-75.5 -26q-50 0 -88 28l22 54q26 -20 58 -20q21 0 33.5 12.5t12.5 28.5t-12.5 27t-35.5 11q-17 0 -35 -5l42 99h68z" />
    <glyph glyph-name="uni00B9" unicode="&#xb9;" horiz-adv-x="262" 
d="M16 773h167v-413h-84v345h-83v68z" />
    <glyph glyph-name="ordmasculine" unicode="&#xba;" horiz-adv-x="407" 
d="M203 776q77 0 125.5 -44t48.5 -116t-48.5 -116t-125.5 -44t-125 44t-48 116t48 116t125 44zM203 710q-41 0 -66.5 -26t-25.5 -69t25.5 -69t66.5 -26t66 26t25 69t-25 69t-66 26z" />
    <glyph glyph-name="guillemotright" unicode="&#xbb;" horiz-adv-x="468" 
d="M172 87h-96l107 174l-107 174h96l116 -174zM352 87h-96l107 174l-107 174h96l116 -174z" />
    <glyph glyph-name="onequarter" unicode="&#xbc;" horiz-adv-x="817" 
d="M16 700h167v-413h-84v345h-83v68zM565 700h110l-514 -700h-111zM594 413h80l-139 -254h120v102h79v-102h61v-62h-61v-97h-79v97h-204v59z" />
    <glyph glyph-name="onehalf" unicode="&#xbd;" horiz-adv-x="839" 
d="M16 700h167v-413h-84v345h-83v68zM565 700h110l-514 -700h-111zM650 217q49 49 49 83q0 22 -17 34.5t-48 12.5q-57 0 -117 -52l-33 61q77 60 163 60q62 0 100.5 -28.5t38.5 -76.5q0 -59 -80 -136l-108 -108h206v-67h-311v57z" />
    <glyph glyph-name="threequarters" unicode="&#xbe;" horiz-adv-x="879" 
d="M627 700h110l-514 -700h-111zM203 528q53 -5 85 -34.5t32 -77.5q0 -59 -43.5 -95.5t-115.5 -36.5q-89 0 -150 46l35 65q47 -47 109 -47q39 0 61 18t22 49q0 61 -84 61h-62v47l112 113h-173v63h269v-49l-119 -120zM656 413h80l-139 -254h120v102h79v-102h61v-62h-61v-97
h-79v97h-204v59z" />
    <glyph glyph-name="questiondown" unicode="&#xbf;" horiz-adv-x="443" 
d="M234 408q-27 0 -45 18.5t-18 46.5q0 29 18 48t45 19t45 -19t18 -48q0 -28 -18 -46.5t-45 -18.5zM438 35q-3 -95 -58 -147t-149 -52q-92 0 -146 43.5t-54 123.5q0 44 16.5 78.5t39.5 57.5t46 45t39.5 52t16.5 67h88q0 -44 -14.5 -78.5t-34.5 -56.5t-40.5 -42t-35 -46.5
t-14.5 -59.5q0 -42 27.5 -64t75.5 -22q49 0 77 26t30 76z" />
    <glyph glyph-name="Agrave" unicode="&#xc0;" horiz-adv-x="738" 
d="M431 777h-102l-122 98l118 50zM611 0l-67 158h-353l-67 -158h-123l309 700h121l306 -700h-126zM235 263h264l-132 311z" />
    <glyph glyph-name="Aacute" unicode="&#xc1;" horiz-adv-x="738" 
d="M526 875l-122 -98h-102l106 148zM611 0l-67 158h-353l-67 -158h-123l309 700h121l306 -700h-126zM235 263h264l-132 311z" />
    <glyph glyph-name="Acircumflex" unicode="&#xc2;" horiz-adv-x="738" 
d="M369 867l-62 -88h-94l103 141h106l103 -141h-94zM611 0l-67 158h-353l-67 -158h-123l309 700h121l306 -700h-126zM235 263h264l-132 311z" />
    <glyph glyph-name="Atilde" unicode="&#xc3;" horiz-adv-x="738" 
d="M319 844q-37 0 -37 -49h-74q0 131 92 131q30 0 67.5 -27.5t51.5 -27.5q38 0 38 49h73q0 -131 -91 -131q-33 0 -69.5 27.5t-50.5 27.5zM611 0l-67 158h-353l-67 -158h-123l309 700h121l306 -700h-126zM235 263h264l-132 311z" />
    <glyph glyph-name="Adieresis" unicode="&#xc4;" horiz-adv-x="738" 
d="M281 789q-26 0 -43.5 18.5t-17.5 44.5q0 28 17.5 45.5t43.5 17.5t43.5 -18t17.5 -45q0 -26 -18 -44.5t-43 -18.5zM458 789q-26 0 -43.5 18.5t-17.5 44.5q0 28 17.5 45.5t43.5 17.5t43.5 -18t17.5 -45q0 -26 -18 -44.5t-43 -18.5zM611 0l-67 158h-353l-67 -158h-123
l309 700h121l306 -700h-126zM235 263h264l-132 311z" />
    <glyph glyph-name="Aring" unicode="&#xc5;" horiz-adv-x="738" 
d="M611 0l-67 158h-353l-67 -158h-123l299 676q-51 36 -51 98q0 50 36 86t86 36q51 0 87 -36t36 -86q0 -62 -52 -99l295 -675h-126zM371 840q-28 0 -48.5 -19.5t-20.5 -46.5t20 -46t49 -19t49.5 19t20.5 46t-20.5 46.5t-49.5 19.5zM235 263h264l-132 311z" />
    <glyph glyph-name="AE" unicode="&#xc6;" horiz-adv-x="1051" 
d="M605 106h394v-106h-511v173h-266l-98 -173h-123l406 700h580v-106h-382v-190h343v-105h-343v-193zM274 265h214v337h-24z" />
    <glyph glyph-name="Ccedilla" unicode="&#xc7;" horiz-adv-x="697" 
d="M410 -50q32 -6 51 -26.5t19 -52.5q0 -43 -30.5 -69t-75.5 -26q-50 0 -88 28l22 54q26 -20 58 -20q21 0 33.5 12.5t12.5 28.5t-12.5 27t-35.5 11q-17 0 -35 -5l36 84q-142 12 -236.5 112.5t-94.5 242.5q0 149 106.5 250.5t261.5 101.5q74 0 144.5 -28.5t121.5 -79.5
l-69 -86q-38 41 -90 65t-105 24q-105 0 -177.5 -71.5t-72.5 -174.5q0 -104 72.5 -175.5t177.5 -71.5q109 0 195 83l70 -78q-101 -99 -237 -113z" />
    <glyph glyph-name="Egrave" unicode="&#xc8;" horiz-adv-x="656" 
d="M307 925l106 -148h-102l-122 98zM92 700h500v-106h-382v-190h342v-105h-342v-193h394v-106h-512v700z" />
    <glyph glyph-name="Eacute" unicode="&#xc9;" horiz-adv-x="656" 
d="M390 925l118 -50l-122 -98h-102zM92 700h500v-106h-382v-190h342v-105h-342v-193h394v-106h-512v700z" />
    <glyph glyph-name="Ecircumflex" unicode="&#xca;" horiz-adv-x="656" 
d="M298 920h106l103 -141h-94l-62 88l-62 -88h-94zM92 700h500v-106h-382v-190h342v-105h-342v-193h394v-106h-512v700z" />
    <glyph glyph-name="Edieresis" unicode="&#xcb;" horiz-adv-x="656" 
d="M263 915q26 0 43.5 -18t17.5 -45q0 -26 -18 -44.5t-43 -18.5q-26 0 -43.5 18.5t-17.5 44.5q0 28 17.5 45.5t43.5 17.5zM440 915q26 0 43.5 -18t17.5 -45q0 -26 -18 -44.5t-43 -18.5q-26 0 -43.5 18.5t-17.5 44.5q0 28 17.5 45.5t43.5 17.5zM92 700h500v-106h-382v-190
h342v-105h-342v-193h394v-106h-512v700z" />
    <glyph glyph-name="Igrave" unicode="&#xcc;" horiz-adv-x="302" 
d="M107 925l106 -148h-102l-122 98zM92 700h118v-700h-118v700z" />
    <glyph glyph-name="Iacute" unicode="&#xcd;" horiz-adv-x="302" 
d="M190 925l118 -50l-122 -98h-102zM92 700h118v-700h-118v700z" />
    <glyph glyph-name="Icircumflex" unicode="&#xce;" horiz-adv-x="302" 
d="M98 920h106l103 -141h-94l-62 88l-62 -88h-94zM92 700h118v-700h-118v700z" />
    <glyph glyph-name="Idieresis" unicode="&#xcf;" horiz-adv-x="302" 
d="M63 915q26 0 43.5 -18t17.5 -45q0 -26 -18 -44.5t-43 -18.5q-26 0 -43.5 18.5t-17.5 44.5q0 28 17.5 45.5t43.5 17.5zM240 915q26 0 43.5 -18t17.5 -45q0 -26 -18 -44.5t-43 -18.5q-26 0 -43.5 18.5t-17.5 44.5q0 28 17.5 45.5t43.5 17.5zM92 700h118v-700h-118v700z" />
    <glyph glyph-name="Eth" unicode="&#xd0;" horiz-adv-x="795" 
d="M399 700q157 0 259.5 -99t102.5 -251t-103 -251t-262 -99h-284v317h-112v69h112v314h287zM402 106q103 0 171.5 68.5t68.5 174.5t-70.5 175.5t-174.5 69.5h-167v-208h198v-69h-198v-211h172z" />
    <glyph glyph-name="Ntilde" unicode="&#xd1;" horiz-adv-x="792" 
d="M567 920q0 -131 -91 -131q-33 0 -69.5 27.5t-50.5 27.5q-37 0 -37 -49h-74q0 131 92 131q30 0 67.5 -27.5t51.5 -27.5q38 0 38 49h73zM92 700h116l375 -503v503h116v-700h-116l-373 502v-502h-118v700z" />
    <glyph glyph-name="Ograve" unicode="&#xd2;" horiz-adv-x="810" 
d="M356 925l106 -148h-102l-122 98zM405 703q157 0 264 -101.5t107 -251.5t-107 -252.5t-264 -102.5t-264 102.5t-107 252.5t107 251.5t264 101.5zM406 597q-104 0 -178 -71.5t-74 -175.5t74.5 -176.5t177.5 -72.5t176 72.5t73 176.5t-73 175.5t-176 71.5z" />
    <glyph glyph-name="Oacute" unicode="&#xd3;" horiz-adv-x="810" 
d="M439 925l118 -50l-122 -98h-102zM405 703q157 0 264 -101.5t107 -251.5t-107 -252.5t-264 -102.5t-264 102.5t-107 252.5t107 251.5t264 101.5zM406 597q-104 0 -178 -71.5t-74 -175.5t74.5 -176.5t177.5 -72.5t176 72.5t73 176.5t-73 175.5t-176 71.5z" />
    <glyph glyph-name="Ocircumflex" unicode="&#xd4;" horiz-adv-x="810" 
d="M347 920h106l103 -141h-94l-62 88l-62 -88h-94zM405 703q157 0 264 -101.5t107 -251.5t-107 -252.5t-264 -102.5t-264 102.5t-107 252.5t107 251.5t264 101.5zM406 597q-104 0 -178 -71.5t-74 -175.5t74.5 -176.5t177.5 -72.5t176 72.5t73 176.5t-73 175.5t-176 71.5z
" />
    <glyph glyph-name="Otilde" unicode="&#xd5;" horiz-adv-x="810" 
d="M561 920q0 -131 -91 -131q-33 0 -69.5 27.5t-50.5 27.5q-37 0 -37 -49h-74q0 131 92 131q30 0 67.5 -27.5t51.5 -27.5q38 0 38 49h73zM405 703q157 0 264 -101.5t107 -251.5t-107 -252.5t-264 -102.5t-264 102.5t-107 252.5t107 251.5t264 101.5zM406 597
q-104 0 -178 -71.5t-74 -175.5t74.5 -176.5t177.5 -72.5t176 72.5t73 176.5t-73 175.5t-176 71.5z" />
    <glyph glyph-name="Odieresis" unicode="&#xd6;" horiz-adv-x="810" 
d="M312 915q26 0 43.5 -18t17.5 -45q0 -26 -18 -44.5t-43 -18.5q-26 0 -43.5 18.5t-17.5 44.5q0 28 17.5 45.5t43.5 17.5zM489 915q26 0 43.5 -18t17.5 -45q0 -26 -18 -44.5t-43 -18.5q-26 0 -43.5 18.5t-17.5 44.5q0 28 17.5 45.5t43.5 17.5zM405 703q157 0 264 -101.5
t107 -251.5t-107 -252.5t-264 -102.5t-264 102.5t-107 252.5t107 251.5t264 101.5zM406 597q-104 0 -178 -71.5t-74 -175.5t74.5 -176.5t177.5 -72.5t176 72.5t73 176.5t-73 175.5t-176 71.5z" />
    <glyph glyph-name="multiply" unicode="&#xd7;" horiz-adv-x="498" 
d="M427 448l-123 -123l123 -124l-53 -56l-124 125l-125 -125l-53 56l123 124l-123 123l53 56l125 -125l124 125z" />
    <glyph glyph-name="Oslash" unicode="&#xd8;" horiz-adv-x="810" 
d="M629 634q69 -48 108 -122t39 -162q0 -150 -107 -252.5t-264 -102.5q-93 0 -176 40l-60 -90h-69l80 120q-68 49 -107 123.5t-39 161.5q0 150 107 251.5t264 101.5q94 0 174 -39l61 91h70zM154 350q0 -116 89 -190l275 411q-52 26 -112 26q-104 0 -178 -71.5t-74 -175.5z
M406 101q103 0 176 72.5t73 176.5q0 116 -89 190l-275 -412q56 -27 115 -27z" />
    <glyph glyph-name="Ugrave" unicode="&#xd9;" horiz-adv-x="764" 
d="M338 925l106 -148h-102l-122 98zM196 290q0 -88 50.5 -138.5t137.5 -50.5q86 0 135.5 50t49.5 139v410h118v-410q0 -137 -81 -216t-223 -79t-223.5 79t-81.5 216v410h118v-410z" />
    <glyph glyph-name="Uacute" unicode="&#xda;" horiz-adv-x="764" 
d="M421 925l118 -50l-122 -98h-102zM196 290q0 -88 50.5 -138.5t137.5 -50.5q86 0 135.5 50t49.5 139v410h118v-410q0 -137 -81 -216t-223 -79t-223.5 79t-81.5 216v410h118v-410z" />
    <glyph glyph-name="Ucircumflex" unicode="&#xdb;" horiz-adv-x="764" 
d="M329 920h106l103 -141h-94l-62 88l-62 -88h-94zM196 290q0 -88 50.5 -138.5t137.5 -50.5q86 0 135.5 50t49.5 139v410h118v-410q0 -137 -81 -216t-223 -79t-223.5 79t-81.5 216v410h118v-410z" />
    <glyph glyph-name="Udieresis" unicode="&#xdc;" horiz-adv-x="764" 
d="M294 915q26 0 43.5 -18t17.5 -45q0 -26 -18 -44.5t-43 -18.5q-26 0 -43.5 18.5t-17.5 44.5q0 28 17.5 45.5t43.5 17.5zM471 915q26 0 43.5 -18t17.5 -45q0 -26 -18 -44.5t-43 -18.5q-26 0 -43.5 18.5t-17.5 44.5q0 28 17.5 45.5t43.5 17.5zM196 290q0 -88 50.5 -138.5
t137.5 -50.5q86 0 135.5 50t49.5 139v410h118v-410q0 -137 -81 -216t-223 -79t-223.5 79t-81.5 216v410h118v-410z" />
    <glyph glyph-name="Yacute" unicode="&#xdd;" horiz-adv-x="637" 
d="M475 875l-122 -98h-102l106 148zM636 700l-257 -467v-233h-117v229l-261 471h119l200 -341l196 341h120z" />
    <glyph glyph-name="Thorn" unicode="&#xde;" horiz-adv-x="678" 
d="M357 601q142 0 219 -61t77 -173q0 -117 -77 -181t-219 -64h-147v-122h-118v700h118v-99h147zM352 220q181 0 181 144q0 139 -181 139h-142v-283h142z" />
    <glyph glyph-name="germandbls" unicode="&#xdf;" horiz-adv-x="654" 
d="M78 488q0 119 68.5 189t186.5 70q104 0 168.5 -53t64.5 -140q0 -59 -31.5 -106t-84.5 -67q71 -14 113.5 -58t42.5 -113q0 -93 -72 -151.5t-191 -58.5h-51v89h60q64 0 103 33t39 85q0 56 -45 87t-122 31h-13v88q64 0 102.5 33.5t38.5 89.5q0 54 -34 86t-90 32
q-64 0 -101.5 -42.5t-37.5 -115.5v-496h-114v488z" />
    <glyph glyph-name="agrave" unicode="&#xe0;" horiz-adv-x="586" 
d="M352 609h-102l-122 98l118 50zM517 0h-113v65q-57 -70 -176 -70q-85 0 -136 46.5t-51 118.5q0 73 53 116t148 44h161v16q0 51 -32.5 79t-94.5 28q-78 0 -157 -54l-47 80q61 36 109.5 51.5t119.5 15.5q102 0 158 -49.5t57 -137.5zM252 86q61 0 103.5 28.5t47.5 72.5v49
h-144q-57 0 -83.5 -16.5t-26.5 -54.5q0 -36 27.5 -57.5t75.5 -21.5z" />
    <glyph glyph-name="aacute" unicode="&#xe1;" horiz-adv-x="586" 
d="M447 707l-122 -98h-102l106 148zM517 0h-113v65q-57 -70 -176 -70q-85 0 -136 46.5t-51 118.5q0 73 53 116t148 44h161v16q0 51 -32.5 79t-94.5 28q-78 0 -157 -54l-47 80q61 36 109.5 51.5t119.5 15.5q102 0 158 -49.5t57 -137.5zM252 86q61 0 103.5 28.5t47.5 72.5v49
h-144q-57 0 -83.5 -16.5t-26.5 -54.5q0 -36 27.5 -57.5t75.5 -21.5z" />
    <glyph glyph-name="acircumflex" unicode="&#xe2;" horiz-adv-x="586" 
d="M290 699l-62 -88h-94l103 141h106l103 -141h-94zM517 0h-113v65q-57 -70 -176 -70q-85 0 -136 46.5t-51 118.5q0 73 53 116t148 44h161v16q0 51 -32.5 79t-94.5 28q-78 0 -157 -54l-47 80q61 36 109.5 51.5t119.5 15.5q102 0 158 -49.5t57 -137.5zM252 86
q61 0 103.5 28.5t47.5 72.5v49h-144q-57 0 -83.5 -16.5t-26.5 -54.5q0 -36 27.5 -57.5t75.5 -21.5z" />
    <glyph glyph-name="atilde" unicode="&#xe3;" horiz-adv-x="586" 
d="M240 676q-37 0 -37 -49h-74q0 131 92 131q30 0 67.5 -27.5t51.5 -27.5q38 0 38 49h73q0 -131 -91 -131q-33 0 -69.5 27.5t-50.5 27.5zM517 0h-113v65q-57 -70 -176 -70q-85 0 -136 46.5t-51 118.5q0 73 53 116t148 44h161v16q0 51 -32.5 79t-94.5 28q-78 0 -157 -54
l-47 80q61 36 109.5 51.5t119.5 15.5q102 0 158 -49.5t57 -137.5zM252 86q61 0 103.5 28.5t47.5 72.5v49h-144q-57 0 -83.5 -16.5t-26.5 -54.5q0 -36 27.5 -57.5t75.5 -21.5z" />
    <glyph glyph-name="adieresis" unicode="&#xe4;" horiz-adv-x="586" 
d="M202 621q-26 0 -43.5 18.5t-17.5 44.5q0 28 17.5 45.5t43.5 17.5t43.5 -18t17.5 -45q0 -26 -18 -44.5t-43 -18.5zM379 621q-26 0 -43.5 18.5t-17.5 44.5q0 28 17.5 45.5t43.5 17.5t43.5 -18t17.5 -45q0 -26 -18 -44.5t-43 -18.5zM517 0h-113v65q-57 -70 -176 -70
q-85 0 -136 46.5t-51 118.5q0 73 53 116t148 44h161v16q0 51 -32.5 79t-94.5 28q-78 0 -157 -54l-47 80q61 36 109.5 51.5t119.5 15.5q102 0 158 -49.5t57 -137.5zM252 86q61 0 103.5 28.5t47.5 72.5v49h-144q-57 0 -83.5 -16.5t-26.5 -54.5q0 -36 27.5 -57.5t75.5 -21.5z
" />
    <glyph glyph-name="aring" unicode="&#xe5;" horiz-adv-x="586" 
d="M290 569q-49 0 -83.5 34t-34.5 82q0 47 34.5 81.5t83.5 34.5t83.5 -34.5t34.5 -81.5q0 -48 -34.5 -82t-83.5 -34zM290 749q-28 0 -48 -19t-20 -45t20 -45t48 -19t48 19t20 45t-20 45t-48 19zM517 0h-113v65q-57 -70 -176 -70q-85 0 -136 46.5t-51 118.5q0 73 53 116
t148 44h161v16q0 51 -32.5 79t-94.5 28q-78 0 -157 -54l-47 80q61 36 109.5 51.5t119.5 15.5q102 0 158 -49.5t57 -137.5zM252 86q61 0 103.5 28.5t47.5 72.5v49h-144q-57 0 -83.5 -16.5t-26.5 -54.5q0 -36 27.5 -57.5t75.5 -21.5z" />
    <glyph glyph-name="ae" unicode="&#xe6;" horiz-adv-x="975" 
d="M521 226q0 -55 50.5 -96t117.5 -41q90 0 150 62l62 -65q-84 -90 -221 -90q-77 0 -136 32.5t-90 93.5q-64 -127 -227 -127q-84 0 -135 44t-51 116q0 71 52.5 110.5t149.5 40.5h162v31q0 51 -33 78.5t-95 27.5q-85 0 -176 -54l-29 83q118 64 229 64q132 0 187 -77
q71 77 189 77q123 0 195.5 -81t68.5 -214h-420v-15zM826 303q-2 67 -43 108t-105 41q-62 0 -105.5 -41t-51.5 -108h305zM265 244q-56 0 -86 -20.5t-30 -58.5q0 -40 28.5 -64.5t75.5 -24.5q107 0 153 93l-1 75h-140z" />
    <glyph glyph-name="ccedilla" unicode="&#xe7;" horiz-adv-x="564" 
d="M529 95q-66 -87 -190 -97l-23 -48q32 -6 51 -26.5t19 -52.5q0 -43 -30.5 -69t-75.5 -26q-50 0 -88 28l22 54q26 -20 58 -20q21 0 33.5 12.5t12.5 28.5t-12.5 27t-35.5 11q-17 0 -35 -5l36 86q-106 10 -171 83t-65 184q0 121 74.5 196t193.5 75q144 0 220 -87l-63 -74
q-60 61 -152 60q-69 0 -113.5 -47.5t-44.5 -122.5t44.5 -122.5t113.5 -47.5q102 0 157 64z" />
    <glyph glyph-name="egrave" unicode="&#xe8;" horiz-adv-x="588" 
d="M361 609h-102l-122 98l118 50zM304 536q137 0 198.5 -82.5t50.5 -231.5h-402q14 -62 58 -97.5t107 -35.5q90 0 150 62l61 -65q-82 -90 -220 -90q-123 0 -197.5 74.5t-74.5 194.5t75 195t194 76zM149 306h304q-3 64 -43 101t-105 37q-63 0 -105 -37t-51 -101z" />
    <glyph glyph-name="eacute" unicode="&#xe9;" horiz-adv-x="588" 
d="M456 707l-122 -98h-102l106 148zM304 536q137 0 198.5 -82.5t50.5 -231.5h-402q14 -62 58 -97.5t107 -35.5q90 0 150 62l61 -65q-82 -90 -220 -90q-123 0 -197.5 74.5t-74.5 194.5t75 195t194 76zM149 306h304q-3 64 -43 101t-105 37q-63 0 -105 -37t-51 -101z" />
    <glyph glyph-name="ecircumflex" unicode="&#xea;" horiz-adv-x="588" 
d="M299 699l-62 -88h-94l103 141h106l103 -141h-94zM304 536q137 0 198.5 -82.5t50.5 -231.5h-402q14 -62 58 -97.5t107 -35.5q90 0 150 62l61 -65q-82 -90 -220 -90q-123 0 -197.5 74.5t-74.5 194.5t75 195t194 76zM149 306h304q-3 64 -43 101t-105 37q-63 0 -105 -37
t-51 -101z" />
    <glyph glyph-name="edieresis" unicode="&#xeb;" horiz-adv-x="588" 
d="M211 621q-26 0 -43.5 18.5t-17.5 44.5q0 28 17.5 45.5t43.5 17.5t43.5 -18t17.5 -45q0 -26 -18 -44.5t-43 -18.5zM388 621q-26 0 -43.5 18.5t-17.5 44.5q0 28 17.5 45.5t43.5 17.5t43.5 -18t17.5 -45q0 -26 -18 -44.5t-43 -18.5zM304 536q137 0 198.5 -82.5t50.5 -231.5
h-402q14 -62 58 -97.5t107 -35.5q90 0 150 62l61 -65q-82 -90 -220 -90q-123 0 -197.5 74.5t-74.5 194.5t75 195t194 76zM149 306h304q-3 64 -43 101t-105 37q-63 0 -105 -37t-51 -101z" />
    <glyph glyph-name="igrave" unicode="&#xec;" horiz-adv-x="284" 
d="M98 757l106 -148h-102l-122 98zM85 532h114v-532h-114v532z" />
    <glyph glyph-name="iacute" unicode="&#xed;" horiz-adv-x="284" 
d="M181 757l118 -50l-122 -98h-102zM85 532h114v-532h-114v532z" />
    <glyph glyph-name="icircumflex" unicode="&#xee;" horiz-adv-x="284" 
d="M89 752h106l103 -141h-94l-62 88l-62 -88h-94zM85 532h114v-532h-114v532z" />
    <glyph glyph-name="idieresis" unicode="&#xef;" horiz-adv-x="284" 
d="M54 747q26 0 43.5 -18t17.5 -45q0 -26 -18 -44.5t-43 -18.5q-26 0 -43.5 18.5t-17.5 44.5q0 28 17.5 45.5t43.5 17.5zM231 747q26 0 43.5 -18t17.5 -45q0 -26 -18 -44.5t-43 -18.5q-26 0 -43.5 18.5t-17.5 44.5q0 28 17.5 45.5t43.5 17.5zM85 532h114v-532h-114v532z" />
    <glyph glyph-name="eth" unicode="&#xf0;" horiz-adv-x="590" 
d="M405 604q151 -154 151 -339q0 -123 -74.5 -196.5t-199.5 -73.5q-112 0 -179 62.5t-67 166.5q0 100 62 159.5t165 59.5q57 0 105.5 -22t72.5 -59q-33 108 -139 207l-152 -50l-19 60l115 38q-64 49 -123 77l76 53q84 -38 153 -95l133 44l18 -60zM289 97q66 0 105.5 35
t39.5 94q0 61 -39.5 97t-105.5 36q-65 0 -104 -35t-39 -93q0 -61 39 -97.5t104 -36.5z" />
    <glyph glyph-name="ntilde" unicode="&#xf1;" horiz-adv-x="663" 
d="M296 676q-37 0 -37 -49h-74q0 131 92 131q30 0 67.5 -27.5t51.5 -27.5q38 0 38 49h73q0 -131 -91 -131q-33 0 -69.5 27.5t-50.5 27.5zM396 536q93 0 145.5 -54.5t52.5 -150.5v-331h-115v299q0 60 -34 94.5t-94 34.5q-64 -1 -104.5 -41t-46.5 -104v-283h-115v532h115v-102
q54 106 196 106z" />
    <glyph glyph-name="ograve" unicode="&#xf2;" horiz-adv-x="625" 
d="M269 757l106 -148h-102l-122 98zM313 536q123 0 200 -74.5t77 -194.5q0 -121 -77 -196t-200 -75q-124 0 -201 75t-77 196q0 120 77 194.5t201 74.5zM313 438q-72 0 -117.5 -48.5t-45.5 -124.5q0 -77 45.5 -125t117.5 -48t117 48t45 125q0 76 -45.5 124.5t-116.5 48.5z
" />
    <glyph glyph-name="oacute" unicode="&#xf3;" horiz-adv-x="625" 
d="M352 757l118 -50l-122 -98h-102zM313 536q123 0 200 -74.5t77 -194.5q0 -121 -77 -196t-200 -75q-124 0 -201 75t-77 196q0 120 77 194.5t201 74.5zM313 438q-72 0 -117.5 -48.5t-45.5 -124.5q0 -77 45.5 -125t117.5 -48t117 48t45 125q0 76 -45.5 124.5t-116.5 48.5z
" />
    <glyph glyph-name="ocircumflex" unicode="&#xf4;" horiz-adv-x="625" 
d="M260 752h106l103 -141h-94l-62 88l-62 -88h-94zM313 536q123 0 200 -74.5t77 -194.5q0 -121 -77 -196t-200 -75q-124 0 -201 75t-77 196q0 120 77 194.5t201 74.5zM313 438q-72 0 -117.5 -48.5t-45.5 -124.5q0 -77 45.5 -125t117.5 -48t117 48t45 125q0 76 -45.5 124.5
t-116.5 48.5z" />
    <glyph glyph-name="otilde" unicode="&#xf5;" horiz-adv-x="625" 
d="M474 752q0 -131 -91 -131q-33 0 -69.5 27.5t-50.5 27.5q-37 0 -37 -49h-74q0 131 92 131q30 0 67.5 -27.5t51.5 -27.5q38 0 38 49h73zM313 536q123 0 200 -74.5t77 -194.5q0 -121 -77 -196t-200 -75q-124 0 -201 75t-77 196q0 120 77 194.5t201 74.5zM313 438
q-72 0 -117.5 -48.5t-45.5 -124.5q0 -77 45.5 -125t117.5 -48t117 48t45 125q0 76 -45.5 124.5t-116.5 48.5z" />
    <glyph glyph-name="odieresis" unicode="&#xf6;" horiz-adv-x="625" 
d="M225 747q26 0 43.5 -18t17.5 -45q0 -26 -18 -44.5t-43 -18.5q-26 0 -43.5 18.5t-17.5 44.5q0 28 17.5 45.5t43.5 17.5zM402 747q26 0 43.5 -18t17.5 -45q0 -26 -18 -44.5t-43 -18.5q-26 0 -43.5 18.5t-17.5 44.5q0 28 17.5 45.5t43.5 17.5zM313 536q123 0 200 -74.5
t77 -194.5q0 -121 -77 -196t-200 -75q-124 0 -201 75t-77 196q0 120 77 194.5t201 74.5zM313 438q-72 0 -117.5 -48.5t-45.5 -124.5q0 -77 45.5 -125t117.5 -48t117 48t45 125q0 76 -45.5 124.5t-116.5 48.5z" />
    <glyph glyph-name="divide" unicode="&#xf7;" horiz-adv-x="498" 
d="M243 571q26 0 43.5 -18t17.5 -45q0 -26 -17.5 -44t-43.5 -18t-43.5 18t-17.5 44q0 27 17.5 45t43.5 18zM35 364h428v-79h-428v79zM243 216q26 0 43.5 -18t17.5 -45q0 -26 -17.5 -44t-43.5 -18t-43.5 18t-17.5 44q0 27 17.5 45t43.5 18z" />
    <glyph glyph-name="oslash" unicode="&#xf8;" horiz-adv-x="625" 
d="M458 501q62 -33 97 -94t35 -140q0 -121 -77 -196t-200 -75q-53 0 -103 16l-54 -107h-52l64 125q-63 34 -98 95.5t-35 141.5q0 120 77 194.5t201 74.5q53 0 103 -16l54 107h52zM144 265q0 -100 67 -149l162 320q-26 10 -60 10q-75 0 -122 -50t-47 -131zM313 83
q74 0 121.5 50.5t47.5 131.5q0 99 -68 149l-162 -321q30 -10 61 -10z" />
    <glyph glyph-name="ugrave" unicode="&#xf9;" horiz-adv-x="653" 
d="M380 609h-102l-122 98l118 50zM453 532h115v-532h-115v104q-52 -106 -190 -108q-91 0 -143 55t-52 150v331h115v-299q0 -60 33 -94.5t91 -34.5q67 1 106.5 47.5t39.5 118.5v262z" />
    <glyph glyph-name="uacute" unicode="&#xfa;" horiz-adv-x="653" 
d="M475 707l-122 -98h-102l106 148zM453 532h115v-532h-115v104q-52 -106 -190 -108q-91 0 -143 55t-52 150v331h115v-299q0 -60 33 -94.5t91 -34.5q67 1 106.5 47.5t39.5 118.5v262z" />
    <glyph glyph-name="ucircumflex" unicode="&#xfb;" horiz-adv-x="653" 
d="M318 699l-62 -88h-94l103 141h106l103 -141h-94zM453 532h115v-532h-115v104q-52 -106 -190 -108q-91 0 -143 55t-52 150v331h115v-299q0 -60 33 -94.5t91 -34.5q67 1 106.5 47.5t39.5 118.5v262z" />
    <glyph glyph-name="udieresis" unicode="&#xfc;" horiz-adv-x="653" 
d="M230 621q-26 0 -43.5 18.5t-17.5 44.5q0 28 17.5 45.5t43.5 17.5t43.5 -18t17.5 -45q0 -26 -18 -44.5t-43 -18.5zM407 621q-26 0 -43.5 18.5t-17.5 44.5q0 28 17.5 45.5t43.5 17.5t43.5 -18t17.5 -45q0 -26 -18 -44.5t-43 -18.5zM453 532h115v-532h-115v104
q-52 -106 -190 -108q-91 0 -143 55t-52 150v331h115v-299q0 -60 33 -94.5t91 -34.5q67 1 106.5 47.5t39.5 118.5v262z" />
    <glyph glyph-name="yacute" unicode="&#xfd;" horiz-adv-x="531" 
d="M307 757l118 -50l-122 -98h-102zM294 -73q-50 -126 -173 -126q-69 0 -123 45l49 89q36 -26 69 -26q54 0 81 59l18 40l-220 524h119l159 -403l148 403h115z" />
    <glyph glyph-name="thorn" unicode="&#xfe;" horiz-adv-x="680" 
d="M205 443q60 93 186 93q113 0 183.5 -75.5t70.5 -196.5q0 -120 -69 -194t-183 -74q-128 0 -188 94v-284h-115v936h115v-299zM367 440q-71 0 -116.5 -48.5t-45.5 -123.5q0 -77 45.5 -125.5t116.5 -48.5t116.5 48.5t45.5 125.5q0 75 -45.5 123.5t-116.5 48.5z" />
    <glyph glyph-name="ydieresis" unicode="&#xff;" horiz-adv-x="531" 
d="M180 747q26 0 43.5 -18t17.5 -45q0 -26 -18 -44.5t-43 -18.5q-26 0 -43.5 18.5t-17.5 44.5q0 28 17.5 45.5t43.5 17.5zM357 747q26 0 43.5 -18t17.5 -45q0 -26 -18 -44.5t-43 -18.5q-26 0 -43.5 18.5t-17.5 44.5q0 28 17.5 45.5t43.5 17.5zM294 -73q-50 -126 -173 -126
q-69 0 -123 45l49 89q36 -26 69 -26q54 0 81 59l18 40l-220 524h119l159 -403l148 403h115z" />
    <glyph glyph-name="Amacron" unicode="&#x100;" horiz-adv-x="738" 
d="M497 892v-83h-255v83h255zM611 0l-67 158h-353l-67 -158h-123l309 700h121l306 -700h-126zM235 263h264l-132 311z" />
    <glyph glyph-name="amacron" unicode="&#x101;" horiz-adv-x="586" 
d="M418 724v-83h-255v83h255zM517 0h-113v65q-57 -70 -176 -70q-85 0 -136 46.5t-51 118.5q0 73 53 116t148 44h161v16q0 51 -32.5 79t-94.5 28q-78 0 -157 -54l-47 80q61 36 109.5 51.5t119.5 15.5q102 0 158 -49.5t57 -137.5zM252 86q61 0 103.5 28.5t47.5 72.5v49h-144
q-57 0 -83.5 -16.5t-26.5 -54.5q0 -36 27.5 -57.5t75.5 -21.5z" />
    <glyph glyph-name="Abreve" unicode="&#x102;" horiz-adv-x="738" 
d="M369 774q-60 0 -99.5 39.5t-41.5 102.5h78q2 -29 19.5 -47t43.5 -18t43.5 18t19.5 47h78q-2 -63 -41.5 -102.5t-99.5 -39.5zM611 0l-67 158h-353l-67 -158h-123l309 700h121l306 -700h-126zM235 263h264l-132 311z" />
    <glyph glyph-name="abreve" unicode="&#x103;" horiz-adv-x="586" 
d="M290 606q-60 0 -99.5 39.5t-41.5 102.5h78q2 -29 19.5 -47t43.5 -18t43.5 18t19.5 47h78q-2 -63 -41.5 -102.5t-99.5 -39.5zM517 0h-113v65q-57 -70 -176 -70q-85 0 -136 46.5t-51 118.5q0 73 53 116t148 44h161v16q0 51 -32.5 79t-94.5 28q-78 0 -157 -54l-47 80
q61 36 109.5 51.5t119.5 15.5q102 0 158 -49.5t57 -137.5zM252 86q61 0 103.5 28.5t47.5 72.5v49h-144q-57 0 -83.5 -16.5t-26.5 -54.5q0 -36 27.5 -57.5t75.5 -21.5z" />
    <glyph glyph-name="Aogonek" unicode="&#x104;" horiz-adv-x="738" 
d="M705 0q-49 -69 -49 -105q0 -32 30 -32q24 0 49 32l33 -39q-35 -57 -95 -57q-32 0 -55.5 20t-23.5 58q0 49 52 123h-34l-68 158h-352l-68 -158h-123l309 700h122l306 -700h-33zM368 574l-134 -312h268z" />
    <glyph glyph-name="aogonek" unicode="&#x105;" horiz-adv-x="590" 
d="M483 0q-50 -69 -50 -105q0 -32 30 -32q24 0 49 32l33 -39q-36 -57 -95 -57q-32 0 -55.5 19.5t-23.5 58.5q0 52 54 123h-21v65q-57 -70 -176 -70q-85 0 -136 46.5t-51 118.5q0 73 53 116t147 44h162v16q-2 107 -128 107q-77 0 -156 -54l-47 80q61 36 109 51.5t120 15.5
q102 0 158 -49.5t58 -137.5v-349h-34zM259 236q-58 0 -84 -16.5t-26 -54.5q0 -36 27.5 -57.5t75.5 -21.5q59 0 104.5 30.5t47.5 69.5v50h-145z" />
    <glyph glyph-name="Cacute" unicode="&#x106;" horiz-adv-x="697" 
d="M411 925l118 -50l-122 -98h-102zM599 509q-38 41 -90 65t-105 24q-105 0 -177.5 -71.5t-72.5 -174.5q0 -104 72.5 -175.5t177.5 -71.5q109 0 195 83l70 -78q-54 -53 -126 -84t-145 -31q-154 0 -259 102.5t-105 253.5q0 149 106.5 250.5t261.5 101.5q74 0 144.5 -28.5
t121.5 -79.5z" />
    <glyph glyph-name="cacute" unicode="&#x107;" horiz-adv-x="564" 
d="M343 757l118 -50l-122 -98h-102zM460 375q-60 61 -152 60q-69 0 -113.5 -47.5t-44.5 -122.5t44.5 -122.5t113.5 -47.5q102 0 157 64l64 -64q-75 -99 -226 -99q-119 0 -193.5 74.5t-74.5 194.5q0 121 74.5 196t193.5 75q144 0 220 -87z" />
    <glyph glyph-name="Ccircumflex" unicode="&#x108;" horiz-adv-x="697" 
d="M319 920h106l103 -141h-94l-62 88l-62 -88h-94zM599 509q-38 41 -90 65t-105 24q-105 0 -177.5 -71.5t-72.5 -174.5q0 -104 72.5 -175.5t177.5 -71.5q109 0 195 83l70 -78q-54 -53 -126 -84t-145 -31q-154 0 -259 102.5t-105 253.5q0 149 106.5 250.5t261.5 101.5
q74 0 144.5 -28.5t121.5 -79.5z" />
    <glyph glyph-name="ccircumflex" unicode="&#x109;" horiz-adv-x="564" 
d="M251 752h106l103 -141h-94l-62 88l-62 -88h-94zM460 375q-60 61 -152 60q-69 0 -113.5 -47.5t-44.5 -122.5t44.5 -122.5t113.5 -47.5q102 0 157 64l64 -64q-75 -99 -226 -99q-119 0 -193.5 74.5t-74.5 194.5q0 121 74.5 196t193.5 75q144 0 220 -87z" />
    <glyph glyph-name="Cdotaccent" unicode="&#x10a;" horiz-adv-x="697" 
d="M372 921q29 0 48 -19.5t19 -49.5q0 -29 -19 -48.5t-48 -19.5t-48 19.5t-19 48.5q0 30 19 49.5t48 19.5zM599 509q-38 41 -90 65t-105 24q-105 0 -177.5 -71.5t-72.5 -174.5q0 -104 72.5 -175.5t177.5 -71.5q109 0 195 83l70 -78q-54 -53 -126 -84t-145 -31
q-154 0 -259 102.5t-105 253.5q0 149 106.5 250.5t261.5 101.5q74 0 144.5 -28.5t121.5 -79.5z" />
    <glyph glyph-name="cdotaccent" unicode="&#x10b;" horiz-adv-x="564" 
d="M304 753q29 0 48 -19.5t19 -49.5q0 -29 -19 -48.5t-48 -19.5t-48 19.5t-19 48.5q0 30 19 49.5t48 19.5zM460 375q-60 61 -152 60q-69 0 -113.5 -47.5t-44.5 -122.5t44.5 -122.5t113.5 -47.5q102 0 157 64l64 -64q-75 -99 -226 -99q-119 0 -193.5 74.5t-74.5 194.5
q0 121 74.5 196t193.5 75q144 0 220 -87z" />
    <glyph glyph-name="Ccaron" unicode="&#x10c;" horiz-adv-x="697" 
d="M204 920h102l63 -93l63 93h102l-108 -150h-114zM599 509q-38 41 -90 65t-105 24q-105 0 -177.5 -71.5t-72.5 -174.5q0 -104 72.5 -175.5t177.5 -71.5q109 0 195 83l70 -78q-54 -53 -126 -84t-145 -31q-154 0 -259 102.5t-105 253.5q0 149 106.5 250.5t261.5 101.5
q74 0 144.5 -28.5t121.5 -79.5z" />
    <glyph glyph-name="ccaron" unicode="&#x10d;" horiz-adv-x="564" 
d="M136 752h102l63 -93l63 93h102l-108 -150h-114zM460 375q-60 61 -152 60q-69 0 -113.5 -47.5t-44.5 -122.5t44.5 -122.5t113.5 -47.5q102 0 157 64l64 -64q-75 -99 -226 -99q-119 0 -193.5 74.5t-74.5 194.5q0 121 74.5 196t193.5 75q144 0 220 -87z" />
    <glyph glyph-name="Dcaron" unicode="&#x10e;" horiz-adv-x="775" 
d="M197 920h102l63 -93l63 93h102l-108 -150h-114zM379 700q157 0 259.5 -99t102.5 -251t-103 -251t-262 -99h-284v700h287zM382 106q103 0 171.5 68.5t68.5 174.5t-70.5 175.5t-174.5 69.5h-167v-488h172z" />
    <glyph glyph-name="dcaron" unicode="&#x10f;" horiz-adv-x="754" 
d="M477 440v302h115v-742h-115v91q-59 -96 -187 -96q-114 0 -184.5 75.5t-70.5 197.5q0 120 70 194.5t183 74.5q128 0 189 -97zM666 742h108l-30 -202h-78v202zM314 91q72 0 117.5 48.5t45.5 124.5q0 77 -45.5 126t-117.5 49t-117.5 -49t-46.5 -126q1 -76 46.5 -124.5
t117.5 -48.5z" />
    <glyph glyph-name="Dcroat" unicode="&#x110;" horiz-adv-x="795" 
d="M399 700q157 0 259.5 -99t102.5 -251t-103 -251t-262 -99h-284v317h-112v69h112v314h287zM402 106q103 0 171.5 68.5t68.5 174.5t-70.5 175.5t-174.5 69.5h-167v-208h198v-69h-198v-211h172z" />
    <glyph glyph-name="dcroat" unicode="&#x111;" horiz-adv-x="681" 
d="M661 682v-66h-69v-616h-115v91q-59 -96 -187 -96q-114 0 -184.5 75.5t-70.5 197.5q0 120 70 194.5t183 74.5q128 0 189 -97v176h-99v66h99v60h115v-60h69zM314 91q72 0 117.5 48.5t45.5 124.5q0 77 -45.5 126t-117.5 49t-117.5 -49t-46.5 -126q1 -76 46.5 -124.5
t117.5 -48.5z" />
    <glyph glyph-name="Emacron" unicode="&#x112;" horiz-adv-x="656" 
d="M224 892h255v-83h-255v83zM92 700h500v-106h-382v-190h342v-105h-342v-193h394v-106h-512v700z" />
    <glyph glyph-name="emacron" unicode="&#x113;" horiz-adv-x="588" 
d="M427 724v-83h-255v83h255zM304 536q137 0 198.5 -82.5t50.5 -231.5h-402q14 -62 58 -97.5t107 -35.5q90 0 150 62l61 -65q-82 -90 -220 -90q-123 0 -197.5 74.5t-74.5 194.5t75 195t194 76zM149 306h304q-3 64 -43 101t-105 37q-63 0 -105 -37t-51 -101z" />
    <glyph glyph-name="Ebreve" unicode="&#x114;" horiz-adv-x="656" 
d="M288 916q2 -29 19.5 -47t43.5 -18t43.5 18t19.5 47h78q-2 -63 -41.5 -102.5t-99.5 -39.5t-99.5 39.5t-41.5 102.5h78zM92 700h500v-106h-382v-190h342v-105h-342v-193h394v-106h-512v700z" />
    <glyph glyph-name="ebreve" unicode="&#x115;" horiz-adv-x="588" 
d="M299 606q-60 0 -99.5 39.5t-41.5 102.5h78q2 -29 19.5 -47t43.5 -18t43.5 18t19.5 47h78q-2 -63 -41.5 -102.5t-99.5 -39.5zM304 536q137 0 198.5 -82.5t50.5 -231.5h-402q14 -62 58 -97.5t107 -35.5q90 0 150 62l61 -65q-82 -90 -220 -90q-123 0 -197.5 74.5
t-74.5 194.5t75 195t194 76zM149 306h304q-3 64 -43 101t-105 37q-63 0 -105 -37t-51 -101z" />
    <glyph glyph-name="Edotaccent" unicode="&#x116;" horiz-adv-x="656" 
d="M351 921q29 0 48 -19.5t19 -49.5q0 -29 -19 -48.5t-48 -19.5t-48 19.5t-19 48.5q0 30 19 49.5t48 19.5zM92 700h500v-106h-382v-190h342v-105h-342v-193h394v-106h-512v700z" />
    <glyph glyph-name="edotaccent" unicode="&#x117;" horiz-adv-x="588" 
d="M299 616q-29 0 -48 19.5t-19 48.5q0 30 19 49.5t48 19.5t48 -19.5t19 -49.5q0 -29 -19 -48.5t-48 -19.5zM304 536q137 0 198.5 -82.5t50.5 -231.5h-402q14 -62 58 -97.5t107 -35.5q90 0 150 62l61 -65q-82 -90 -220 -90q-123 0 -197.5 74.5t-74.5 194.5t75 195t194 76z
M149 306h304q-3 64 -43 101t-105 37q-63 0 -105 -37t-51 -101z" />
    <glyph glyph-name="Eogonek" unicode="&#x118;" horiz-adv-x="665" 
d="M547 0q-50 -69 -50 -105q0 -15 8.5 -23.5t21.5 -8.5q25 0 50 32l33 -39q-38 -57 -96 -57q-32 0 -55 20t-23 58q0 50 52 123h-396v700h509v-98h-391v-198h351v-97h-351v-209h403v-98h-66z" />
    <glyph glyph-name="eogonek" unicode="&#x119;" horiz-adv-x="588" 
d="M527 86q-104 -123 -104 -189q0 -34 30 -34q24 0 48 32l33 -39q-37 -57 -94 -57q-33 0 -56 19.5t-23 59.5q0 65 63 150q-54 -32 -122 -32q-118 0 -192.5 75t-74.5 196q0 117 71 191t198 77q131 4 195.5 -80t54.5 -233h-403q14 -62 56.5 -98t108.5 -36q89 0 150 63z
M453 306q-3 62 -43 100t-104 38t-107.5 -38t-49.5 -100h304z" />
    <glyph glyph-name="Ecaron" unicode="&#x11a;" horiz-adv-x="656" 
d="M183 920h102l63 -93l63 93h102l-108 -150h-114zM92 700h500v-106h-382v-190h342v-105h-342v-193h394v-106h-512v700z" />
    <glyph glyph-name="ecaron" unicode="&#x11b;" horiz-adv-x="588" 
d="M353 602h-114l-108 150h102l63 -93l63 93h102zM304 536q137 0 198.5 -82.5t50.5 -231.5h-402q14 -62 58 -97.5t107 -35.5q90 0 150 62l61 -65q-82 -90 -220 -90q-123 0 -197.5 74.5t-74.5 194.5t75 195t194 76zM149 306h304q-3 64 -43 101t-105 37q-63 0 -105 -37
t-51 -101z" />
    <glyph glyph-name="Gcircumflex" unicode="&#x11c;" horiz-adv-x="749" 
d="M387 867l-62 -88h-94l103 141h106l103 -141h-94zM571 149v195h103v-258q-54 -41 -127.5 -66t-144.5 -25q-155 0 -261.5 102.5t-106.5 252.5t108 251.5t267 101.5q74 0 145.5 -26.5t123.5 -71.5l-67 -87q-86 80 -202 80q-107 0 -181 -72t-74 -176q0 -105 74.5 -177
t181.5 -72q81 0 161 48z" />
    <glyph glyph-name="gcircumflex" unicode="&#x11d;" horiz-adv-x="640" 
d="M320 699l-62 -88h-94l103 141h106l103 -141h-94zM451 532h114v-480q0 -114 -75 -181.5t-201 -67.5q-118 0 -221 70l49 83q78 -58 167 -58q76 0 121.5 41t45.5 110v67q-56 -90 -176 -90q-108 0 -174 71t-66 186q0 113 65 182.5t171 70.5q122 1 180 -90v86zM298 116
q67 0 110 46t43 118t-42.5 117.5t-110.5 45.5t-111 -45.5t-44 -117.5q1 -72 43.5 -118t111.5 -46z" />
    <glyph glyph-name="Gbreve" unicode="&#x11e;" horiz-adv-x="749" 
d="M387 774q-60 0 -99.5 39.5t-41.5 102.5h78q2 -29 19.5 -47t43.5 -18t43.5 18t19.5 47h78q-2 -63 -41.5 -102.5t-99.5 -39.5zM571 149v195h103v-258q-54 -41 -127.5 -66t-144.5 -25q-155 0 -261.5 102.5t-106.5 252.5t108 251.5t267 101.5q74 0 145.5 -26.5t123.5 -71.5
l-67 -87q-86 80 -202 80q-107 0 -181 -72t-74 -176q0 -105 74.5 -177t181.5 -72q81 0 161 48z" />
    <glyph glyph-name="gbreve" unicode="&#x11f;" horiz-adv-x="640" 
d="M320 606q-60 0 -99.5 39.5t-41.5 102.5h78q2 -29 19.5 -47t43.5 -18t43.5 18t19.5 47h78q-2 -63 -41.5 -102.5t-99.5 -39.5zM451 532h114v-480q0 -114 -75 -181.5t-201 -67.5q-118 0 -221 70l49 83q78 -58 167 -58q76 0 121.5 41t45.5 110v67q-56 -90 -176 -90
q-108 0 -174 71t-66 186q0 113 65 182.5t171 70.5q122 1 180 -90v86zM298 116q67 0 110 46t43 118t-42.5 117.5t-110.5 45.5t-111 -45.5t-44 -117.5q1 -72 43.5 -118t111.5 -46z" />
    <glyph glyph-name="Gdotaccent" unicode="&#x120;" horiz-adv-x="749" 
d="M387 784q-29 0 -48 19.5t-19 48.5q0 30 19 49.5t48 19.5t48 -19.5t19 -49.5q0 -29 -19 -48.5t-48 -19.5zM571 149v195h103v-258q-54 -41 -127.5 -66t-144.5 -25q-155 0 -261.5 102.5t-106.5 252.5t108 251.5t267 101.5q74 0 145.5 -26.5t123.5 -71.5l-67 -87
q-86 80 -202 80q-107 0 -181 -72t-74 -176q0 -105 74.5 -177t181.5 -72q81 0 161 48z" />
    <glyph glyph-name="gdotaccent" unicode="&#x121;" horiz-adv-x="640" 
d="M320 616q-29 0 -48 19.5t-19 48.5q0 30 19 49.5t48 19.5t48 -19.5t19 -49.5q0 -29 -19 -48.5t-48 -19.5zM451 532h114v-480q0 -114 -75 -181.5t-201 -67.5q-118 0 -221 70l49 83q78 -58 167 -58q76 0 121.5 41t45.5 110v67q-56 -90 -176 -90q-108 0 -174 71t-66 186
q0 113 65 182.5t171 70.5q122 1 180 -90v86zM298 116q67 0 110 46t43 118t-42.5 117.5t-110.5 45.5t-111 -45.5t-44 -117.5q1 -72 43.5 -118t111.5 -46z" />
    <glyph glyph-name="Gcommaaccent" unicode="&#x122;" horiz-adv-x="749" 
d="M571 149v195h103v-258q-54 -41 -127.5 -66t-144.5 -25q-155 0 -261.5 102.5t-106.5 252.5t108 251.5t267 101.5q74 0 145.5 -26.5t123.5 -71.5l-67 -87q-86 80 -202 80q-107 0 -181 -72t-74 -176q0 -105 74.5 -177t181.5 -72q81 0 161 48zM387 -50q25 0 43 -17t18 -45
q0 -26 -18 -52l-57 -85h-59l38 86q-27 17 -27 50q0 27 17.5 45t44.5 18z" />
    <glyph glyph-name="gcommaaccent" unicode="&#x123;" horiz-adv-x="640" 
d="M320 580q-25 0 -43 17t-18 45q0 26 18 52l58 85h59l-38 -86q27 -17 27 -50q0 -27 -17.5 -45t-45.5 -18zM451 532h114v-480q0 -114 -75 -181.5t-201 -67.5q-118 0 -221 70l49 83q78 -58 167 -58q76 0 121.5 41t45.5 110v67q-56 -90 -176 -90q-108 0 -174 71t-66 186
q0 113 65 182.5t171 70.5q122 1 180 -90v86zM298 116q67 0 110 46t43 118t-42.5 117.5t-110.5 45.5t-111 -45.5t-44 -117.5q1 -72 43.5 -118t111.5 -46z" />
    <glyph glyph-name="Hcircumflex" unicode="&#x124;" horiz-adv-x="791" 
d="M347 920h106l103 -141h-94l-62 88l-62 -88h-94zM92 700h118v-304h371v304h118v-700h-118v290h-371v-290h-118v700z" />
    <glyph glyph-name="hcircumflex" unicode="&#x125;" horiz-adv-x="669" 
d="M208 821l-62 88l-62 -88h-94l103 141h106l103 -141h-94zM402 536q93 0 145.5 -54.5t52.5 -150.5v-331h-115v299q0 60 -34 94.5t-94 34.5q-70 -1 -111 -47.5t-41 -118.5v-262h-115v742h115v-314q55 108 197 108z" />
    <glyph glyph-name="Hbar" unicode="&#x126;" horiz-adv-x="851" 
d="M819 598v-83h-90v-515h-118v290h-371v-290h-118v515h-90v83h90v102h118v-102h371v102h118v-102h90zM611 396v119h-371v-119h371z" />
    <glyph glyph-name="hbar" unicode="&#x127;" horiz-adv-x="669" 
d="M402 536q93 0 145.5 -54.5t52.5 -150.5v-331h-115v299q0 60 -34 94.5t-94 34.5q-70 -1 -111 -47.5t-41 -118.5v-262h-115v589h-84v69h84v84h115v-84h141v-69h-141v-161q55 108 197 108z" />
    <glyph glyph-name="Itilde" unicode="&#x128;" horiz-adv-x="302" 
d="M312 920q0 -131 -91 -131q-33 0 -69.5 27.5t-50.5 27.5q-37 0 -37 -49h-74q0 131 92 131q30 0 67.5 -27.5t51.5 -27.5q38 0 38 49h73zM92 700h118v-700h-118v700z" />
    <glyph glyph-name="itilde" unicode="&#x129;" horiz-adv-x="284" 
d="M303 752q0 -131 -91 -131q-33 0 -69.5 27.5t-50.5 27.5q-37 0 -37 -49h-74q0 131 92 131q30 0 67.5 -27.5t51.5 -27.5q38 0 38 49h73zM85 532h114v-532h-114v532z" />
    <glyph glyph-name="Imacron" unicode="&#x12a;" horiz-adv-x="302" 
d="M23 873h255v-83h-255v83zM92 700h118v-700h-118v700z" />
    <glyph glyph-name="imacron" unicode="&#x12b;" horiz-adv-x="284" 
d="M15 724h255v-83h-255v83zM85 532h114v-532h-114v532z" />
    <glyph glyph-name="Ibreve" unicode="&#x12c;" horiz-adv-x="302" 
d="M88 916q2 -29 19.5 -47t43.5 -18t43.5 18t19.5 47h78q-2 -63 -41.5 -102.5t-99.5 -39.5t-99.5 39.5t-41.5 102.5h78zM92 700h118v-700h-118v700z" />
    <glyph glyph-name="ibreve" unicode="&#x12d;" horiz-adv-x="284" 
d="M79 748q2 -29 19.5 -47t43.5 -18t43.5 18t19.5 47h78q-2 -63 -41.5 -102.5t-99.5 -39.5t-99.5 39.5t-41.5 102.5h78zM85 532h114v-532h-114v532z" />
    <glyph glyph-name="Iogonek" unicode="&#x12e;" horiz-adv-x="302" 
d="M186 0q-49 -69 -49 -105q0 -15 8 -23.5t21 -8.5q25 0 50 32l33 -39q-36 -57 -95 -57q-32 0 -55.5 19.5t-23.5 58.5q0 49 52 123h-35v700h118v-700h-24z" />
    <glyph glyph-name="iogonek" unicode="&#x12f;" horiz-adv-x="267" 
d="M135 754q29 0 48 -19.5t19 -50.5t-19 -50.5t-48 -19.5t-48 19.5t-19 50.5t19 50.5t48 19.5zM169 0q-49 -69 -49 -105q0 -32 30 -32q24 0 49 32l33 -39q-36 -57 -95 -57q-32 0 -55.5 19.5t-23.5 58.5q0 49 52 123h-32v532h115v-532h-24z" />
    <glyph glyph-name="Idotaccent" unicode="&#x130;" horiz-adv-x="302" 
d="M151 921q29 0 48 -19.5t19 -49.5q0 -29 -19 -48.5t-48 -19.5t-48 19.5t-19 48.5q0 30 19 49.5t48 19.5zM92 700h118v-700h-118v700z" />
    <glyph glyph-name="dotlessi" unicode="&#x131;" horiz-adv-x="284" 
d="M85 532h114v-532h-114v532z" />
    <glyph glyph-name="IJ" unicode="&#x132;" horiz-adv-x="801" 
d="M92 700h118v-700h-118v700zM724 216q0 -105 -58 -163t-160 -58q-124 0 -206 101l56 90q71 -77 149 -77q48 0 74 28.5t26 82.5v374h-242v106h361v-484z" />
    <glyph glyph-name="ij" unicode="&#x133;" horiz-adv-x="571" 
d="M425 754q31 0 51 -19.5t20 -50.5q0 -30 -20 -50t-51 -20q-30 0 -50 20t-20 50q0 31 20 50.5t50 19.5zM142 753q29 0 48 -19.5t19 -49.5q0 -29 -19 -48.5t-48 -19.5t-48 19.5t-19 48.5q0 30 19 49.5t48 19.5zM85 532h114v-532h-114v532zM482 -15q0 -89 -51 -136.5
t-121 -47.5q-62 0 -111 36l38 89q34 -24 68 -24q28 0 45.5 18t17.5 54v558h114v-547z" />
    <glyph glyph-name="Jcircumflex" unicode="&#x134;" horiz-adv-x="499" 
d="M185 920h106l103 -141h-94l-62 88l-62 -88h-94zM422 216q0 -105 -58 -163t-160 -58q-124 0 -206 101l56 90q71 -77 149 -77q48 0 74 28.5t26 82.5v374h-242v106h361v-484z" />
    <glyph glyph-name="jcircumflex" unicode="&#x135;" horiz-adv-x="274" 
d="M84 752h106l103 -141h-94l-62 88l-62 -88h-94zM199 -24q0 -84 -43 -129.5t-120 -44.5q-73 2 -127 36l29 84q34 -22 74 -24q35 -1 53.5 23.5t18.5 71.5v539h115v-556z" />
    <glyph glyph-name="Kcommaaccent" unicode="&#x136;" horiz-adv-x="718" 
d="M412 401l289 -401h-142l-230 309l-119 -131v-178h-118v700h118v-362l334 362h139zM353 -50q25 0 43 -17t18 -45q0 -26 -18 -52l-57 -85h-59l38 86q-27 17 -27 50q0 27 17.5 45t44.5 18z" />
    <glyph glyph-name="kcommaaccent" unicode="&#x137;" horiz-adv-x="595" 
d="M375 326l212 -326h-136l-156 244l-90 -95v-149h-115v742h115v-448l235 238h132zM321 -50q25 0 43 -17t18 -45q0 -26 -18 -52l-57 -85h-59l38 86q-27 17 -27 50q0 27 17.5 45t44.5 18z" />
    <glyph glyph-name="kgreenlandic" unicode="&#x138;" horiz-adv-x="590" 
d="M446 0l-155 244l-92 -96v-148h-114v532h114v-238l236 238h132l-197 -206l212 -326h-136z" />
    <glyph glyph-name="Lacute" unicode="&#x139;" horiz-adv-x="534" 
d="M192 925l118 -50l-122 -98h-102zM92 700h118v-593h303v-107h-421v700z" />
    <glyph glyph-name="lacute" unicode="&#x13a;" horiz-adv-x="295" 
d="M187 967l118 -50l-122 -98h-102zM90 742h115v-742h-115v742z" />
    <glyph glyph-name="Lcommaaccent" unicode="&#x13b;" horiz-adv-x="534" 
d="M210 107h303v-107h-421v700h118v-593zM303 -50q25 0 43 -17t18 -45q0 -26 -18 -52l-57 -85h-59l38 86q-27 17 -27 50q0 27 17.5 45t44.5 18z" />
    <glyph glyph-name="lcommaaccent" unicode="&#x13c;" horiz-adv-x="295" 
d="M205 742v-742h-115v742h115zM148 -50q25 0 43 -17t18 -45q0 -26 -18 -52l-57 -85h-59l38 86q-27 17 -27 50q0 27 17.5 45t44.5 18z" />
    <glyph glyph-name="Lcaron" unicode="&#x13d;" horiz-adv-x="534" 
d="M92 700h118v-593h303v-107h-421v700zM405 700h108l-30 -202h-78v202z" />
    <glyph glyph-name="lcaron" unicode="&#x13e;" horiz-adv-x="367" 
d="M90 742h115v-742h-115v742zM279 742h108l-30 -202h-78v202z" />
    <glyph glyph-name="Ldot" unicode="&#x13f;" horiz-adv-x="534" 
d="M92 700h118v-593h303v-107h-421v700zM417 462q26 0 43 -17.5t17 -44.5q0 -28 -17 -46t-43 -18t-43 18t-17 46q0 27 17 44.5t43 17.5z" />
    <glyph glyph-name="ldot" unicode="&#x140;" horiz-adv-x="355" 
d="M90 742h115v-742h-115v742zM295 460q26 0 43 -17.5t17 -44.5q0 -28 -17 -46t-43 -18t-43 18t-17 46q0 27 17 44.5t43 17.5z" />
    <glyph glyph-name="Lslash" unicode="&#x141;" horiz-adv-x="534" 
d="M210 107h303v-107h-421v365l-94 -27v82l94 28v252h118v-217l188 55v-83l-188 -55v-293z" />
    <glyph glyph-name="lslash" unicode="&#x142;" horiz-adv-x="338" 
d="M341 537v-83l-112 -33v-421h-115v388l-112 -33v83l112 33v271h115v-238z" />
    <glyph glyph-name="Nacute" unicode="&#x143;" horiz-adv-x="792" 
d="M445 925l118 -50l-122 -98h-102zM92 700h116l375 -503v503h116v-700h-116l-373 502v-502h-118v700z" />
    <glyph glyph-name="nacute" unicode="&#x144;" horiz-adv-x="663" 
d="M503 707l-122 -98h-102l106 148zM396 536q93 0 145.5 -54.5t52.5 -150.5v-331h-115v299q0 60 -34 94.5t-94 34.5q-64 -1 -104.5 -41t-46.5 -104v-283h-115v532h115v-102q54 106 196 106z" />
    <glyph glyph-name="Ncommaaccent" unicode="&#x145;" horiz-adv-x="792" 
d="M583 700h116v-700h-116l-373 502v-502h-118v700h116l375 -503v503zM396 -50q25 0 43 -17t18 -45q0 -26 -18 -52l-57 -85h-59l38 86q-27 17 -27 50q0 27 17.5 45t44.5 18z" />
    <glyph glyph-name="ncommaaccent" unicode="&#x146;" horiz-adv-x="663" 
d="M396 536q93 0 145.5 -54.5t52.5 -150.5v-331h-115v299q0 60 -34 94.5t-94 34.5q-64 -1 -104.5 -41t-46.5 -104v-283h-115v532h115v-102q54 106 196 106zM336 -50q25 0 43 -17t18 -45q0 -26 -18 -52l-57 -85h-59l38 86q-27 17 -27 50q0 27 17.5 45t44.5 18z" />
    <glyph glyph-name="Ncaron" unicode="&#x147;" horiz-adv-x="792" 
d="M238 920h102l63 -93l63 93h102l-108 -150h-114zM92 700h116l375 -503v503h116v-700h-116l-373 502v-502h-118v700z" />
    <glyph glyph-name="ncaron" unicode="&#x148;" horiz-adv-x="663" 
d="M400 602h-114l-108 150h102l63 -93l63 93h102zM396 536q93 0 145.5 -54.5t52.5 -150.5v-331h-115v299q0 60 -34 94.5t-94 34.5q-64 -1 -104.5 -41t-46.5 -104v-283h-115v532h115v-102q54 106 196 106z" />
    <glyph glyph-name="napostrophe" unicode="&#x149;" horiz-adv-x="762" 
d="M93 752q25 0 43 -17t18 -45q0 -26 -18 -52l-57 -85h-59l38 86q-27 17 -27 50q0 27 17.5 45t44.5 18zM495 536q93 0 145.5 -54.5t52.5 -150.5v-331h-115v299q0 60 -34 94.5t-94 34.5q-64 -1 -104.5 -41t-46.5 -104v-283h-115v532h115v-102q54 106 196 106z" />
    <glyph glyph-name="Eng" unicode="&#x14a;" horiz-adv-x="792" 
d="M583 700h116v-700q0 -93 -59 -148.5t-159 -55.5q-119 0 -196 77l56 92q65 -55 138 -55q43 0 69.5 24.5t30.5 70.5l-369 497v-502h-118v700h116l375 -503v503z" />
    <glyph glyph-name="eng" unicode="&#x14b;" horiz-adv-x="663" 
d="M396 536q93 0 145.5 -54.5t52.5 -150.5v-347q0 -88 -51.5 -135.5t-121.5 -47.5q-62 0 -111 36l38 89q34 -24 68 -24q28 0 45.5 18t17.5 54v325q0 60 -34 94.5t-94 34.5q-64 -1 -104.5 -41t-46.5 -104v-283h-115v532h115v-102q54 106 196 106z" />
    <glyph glyph-name="Omacron" unicode="&#x14c;" horiz-adv-x="810" 
d="M273 892h255v-83h-255v83zM405 703q157 0 264 -101.5t107 -251.5t-107 -252.5t-264 -102.5t-264 102.5t-107 252.5t107 251.5t264 101.5zM406 597q-104 0 -178 -71.5t-74 -175.5t74.5 -176.5t177.5 -72.5t176 72.5t73 176.5t-73 175.5t-176 71.5z" />
    <glyph glyph-name="omacron" unicode="&#x14d;" horiz-adv-x="625" 
d="M186 724h255v-83h-255v83zM313 536q123 0 200 -74.5t77 -194.5q0 -121 -77 -196t-200 -75q-124 0 -201 75t-77 196q0 120 77 194.5t201 74.5zM313 438q-72 0 -117.5 -48.5t-45.5 -124.5q0 -77 45.5 -125t117.5 -48t117 48t45 125q0 76 -45.5 124.5t-116.5 48.5z" />
    <glyph glyph-name="Obreve" unicode="&#x14e;" horiz-adv-x="810" 
d="M337 916q2 -29 19.5 -47t43.5 -18t43.5 18t19.5 47h78q-2 -63 -41.5 -102.5t-99.5 -39.5t-99.5 39.5t-41.5 102.5h78zM405 703q157 0 264 -101.5t107 -251.5t-107 -252.5t-264 -102.5t-264 102.5t-107 252.5t107 251.5t264 101.5zM406 597q-104 0 -178 -71.5t-74 -175.5
t74.5 -176.5t177.5 -72.5t176 72.5t73 176.5t-73 175.5t-176 71.5z" />
    <glyph glyph-name="obreve" unicode="&#x14f;" horiz-adv-x="625" 
d="M250 748q2 -29 19.5 -47t43.5 -18t43.5 18t19.5 47h78q-2 -63 -41.5 -102.5t-99.5 -39.5t-99.5 39.5t-41.5 102.5h78zM313 536q123 0 200 -74.5t77 -194.5q0 -121 -77 -196t-200 -75q-124 0 -201 75t-77 196q0 120 77 194.5t201 74.5zM313 438q-72 0 -117.5 -48.5
t-45.5 -124.5q0 -77 45.5 -125t117.5 -48t117 48t45 125q0 76 -45.5 124.5t-116.5 48.5z" />
    <glyph glyph-name="Ohungarumlaut" unicode="&#x150;" horiz-adv-x="810" 
d="M337 928l98 -44l-92 -110h-89zM502 928l98 -44l-92 -110h-89zM405 703q157 0 264 -101.5t107 -251.5t-107 -252.5t-264 -102.5t-264 102.5t-107 252.5t107 251.5t264 101.5zM406 597q-104 0 -178 -71.5t-74 -175.5t74.5 -176.5t177.5 -72.5t176 72.5t73 176.5t-73 175.5
t-176 71.5z" />
    <glyph glyph-name="ohungarumlaut" unicode="&#x151;" horiz-adv-x="625" 
d="M250 760l98 -44l-92 -110h-89zM415 760l98 -44l-92 -110h-89zM313 536q123 0 200 -74.5t77 -194.5q0 -121 -77 -196t-200 -75q-124 0 -201 75t-77 196q0 120 77 194.5t201 74.5zM313 438q-72 0 -117.5 -48.5t-45.5 -124.5q0 -77 45.5 -125t117.5 -48t117 48t45 125
q0 76 -45.5 124.5t-116.5 48.5z" />
    <glyph glyph-name="OE" unicode="&#x152;" horiz-adv-x="1097" 
d="M651 106h394v-106h-641q-156 0 -263 101t-107 249q0 147 107 248.5t263 101.5h629v-106h-382v-190h342v-105h-342v-193zM405 106h128v487h-128q-106 0 -178.5 -70t-72.5 -174t72.5 -173.5t178.5 -69.5z" />
    <glyph glyph-name="oe" unicode="&#x153;" horiz-adv-x="1041" 
d="M742 536q124 0 196.5 -81t68.5 -214h-423q9 -70 55 -111t115 -41q89 0 151 62l61 -65q-84 -90 -222 -90q-149 0 -214 118q-67 -118 -217 -118q-124 0 -201 75t-77 195q0 121 77 195.5t201 74.5q74 0 130 -31t87 -87q68 118 212 118zM584 303h308q-2 66 -43 107t-106 41
q-64 0 -107 -40.5t-52 -107.5zM313 92q72 0 117 48t45 125q0 76 -45.5 124t-116.5 48q-72 0 -117.5 -48t-45.5 -124q0 -77 45.5 -125t117.5 -48z" />
    <glyph glyph-name="Racute" unicode="&#x154;" horiz-adv-x="723" 
d="M512 875l-122 -98h-102l106 148zM670 0h-134l-128 212q-10 -1 -32 -1h-166v-211h-118v700h284q134 0 208 -62.5t74 -176.5q0 -84 -37.5 -142t-107.5 -85zM210 317h166q170 0 170 141q0 136 -170 136h-166v-277z" />
    <glyph glyph-name="racute" unicode="&#x155;" horiz-adv-x="394" 
d="M396 707l-122 -98h-102l106 148zM200 426q55 110 184 110v-110q-79 4 -128 -37t-56 -111v-278h-115v532h115v-106z" />
    <glyph glyph-name="Rcommaaccent" unicode="&#x156;" horiz-adv-x="723" 
d="M513 234l157 -234h-134l-128 212q-10 -1 -32 -1h-166v-211h-118v700h284q134 0 208 -62.5t74 -176.5q0 -84 -37.5 -142t-107.5 -85zM210 317h166q170 0 170 141q0 136 -170 136h-166v-277zM360 -50q25 0 43 -17t18 -45q0 -26 -18 -52l-57 -85h-59l38 86q-27 17 -27 50
q0 27 17.5 45t44.5 18z" />
    <glyph glyph-name="rcommaaccent" unicode="&#x157;" horiz-adv-x="394" 
d="M200 426q55 110 184 110v-110q-79 4 -128 -37t-56 -111v-278h-115v532h115v-106zM140 -50q25 0 43 -17t18 -45q0 -26 -18 -52l-57 -85h-59l38 86q-27 17 -27 50q0 27 17.5 45t44.5 18z" />
    <glyph glyph-name="Rcaron" unicode="&#x158;" horiz-adv-x="723" 
d="M409 770h-114l-108 150h102l63 -93l63 93h102zM670 0h-134l-128 212q-10 -1 -32 -1h-166v-211h-118v700h284q134 0 208 -62.5t74 -176.5q0 -84 -37.5 -142t-107.5 -85zM210 317h166q170 0 170 141q0 136 -170 136h-166v-277z" />
    <glyph glyph-name="rcaron" unicode="&#x159;" horiz-adv-x="394" 
d="M293 602h-114l-108 150h102l63 -93l63 93h102zM200 426q55 110 184 110v-110q-79 4 -128 -37t-56 -111v-278h-115v532h115v-106z" />
    <glyph glyph-name="Sacute" unicode="&#x15a;" horiz-adv-x="622" 
d="M358 925l118 -50l-122 -98h-102zM518 529q-107 65 -205 65q-53 0 -83.5 -19t-30.5 -54t28 -59.5t70 -36t91 -29t91 -37t69.5 -61t27.5 -100.5q0 -92 -73.5 -147t-190.5 -55q-80 0 -155 30t-131 81l51 102q53 -49 116.5 -75.5t120.5 -26.5q62 0 96.5 22.5t34.5 62.5
q0 36 -28 60.5t-70 36t-91 28t-91 35t-70 59.5t-28 99q0 89 70 142t185 53q136 0 245 -72z" />
    <glyph glyph-name="sacute" unicode="&#x15b;" horiz-adv-x="470" 
d="M280 757l118 -50l-122 -98h-102zM388 398q-76 47 -153 47q-78 0 -78 -53q0 -26 29 -43t70.5 -28.5t83 -27t70.5 -50.5t29 -89q0 -77 -58.5 -117.5t-145.5 -40.5q-60 0 -117.5 19.5t-96.5 54.5l41 82q34 -30 83.5 -48t94.5 -18q39 0 63 14t24 43q0 30 -29 48t-70 29
t-82 26t-69.5 49.5t-28.5 87.5q0 76 56.5 115t139.5 39q110 0 186 -54z" />
    <glyph glyph-name="Scircumflex" unicode="&#x15c;" horiz-adv-x="622" 
d="M266 920h106l103 -141h-94l-62 88l-62 -88h-94zM518 529q-107 65 -205 65q-53 0 -83.5 -19t-30.5 -54t28 -59.5t70 -36t91 -29t91 -37t69.5 -61t27.5 -100.5q0 -92 -73.5 -147t-190.5 -55q-80 0 -155 30t-131 81l51 102q53 -49 116.5 -75.5t120.5 -26.5q62 0 96.5 22.5
t34.5 62.5q0 36 -28 60.5t-70 36t-91 28t-91 35t-70 59.5t-28 99q0 89 70 142t185 53q136 0 245 -72z" />
    <glyph glyph-name="scircumflex" unicode="&#x15d;" horiz-adv-x="470" 
d="M188 752h106l103 -141h-94l-62 88l-62 -88h-94zM388 398q-76 47 -153 47q-78 0 -78 -53q0 -26 29 -43t70.5 -28.5t83 -27t70.5 -50.5t29 -89q0 -77 -58.5 -117.5t-145.5 -40.5q-60 0 -117.5 19.5t-96.5 54.5l41 82q34 -30 83.5 -48t94.5 -18q39 0 63 14t24 43
q0 30 -29 48t-70 29t-82 26t-69.5 49.5t-28.5 87.5q0 76 56.5 115t139.5 39q110 0 186 -54z" />
    <glyph glyph-name="Scedilla" unicode="&#x15e;" horiz-adv-x="622" 
d="M199 521q0 -35 28 -59.5t70 -36t91 -29t91 -37t69.5 -61t27.5 -100.5q0 -81 -57 -133.5t-153 -65.5l-23 -49q32 -6 51 -26.5t19 -52.5q0 -43 -30.5 -69t-75.5 -26q-50 0 -88 28l22 54q26 -20 58 -20q21 0 33.5 12.5t12.5 28.5t-12.5 27t-35.5 11q-17 0 -35 -5l36 84
q-157 6 -272 111l51 102q53 -49 116.5 -75.5t120.5 -26.5q62 0 96.5 22.5t34.5 62.5q0 36 -28 60.5t-70 36t-91 28t-91 35t-70 59.5t-28 99q0 89 70 142t185 53q136 0 245 -72l-49 -104q-107 65 -205 65q-53 0 -83.5 -19t-30.5 -54z" />
    <glyph glyph-name="scedilla" unicode="&#x15f;" horiz-adv-x="470" 
d="M157 392q0 -26 29 -43t70.5 -28.5t83 -27t70.5 -50.5t29 -89q0 -66 -43 -105t-111 -49l-24 -50q32 -6 51 -26.5t19 -52.5q0 -43 -30.5 -69t-75.5 -26q-50 0 -88 28l22 54q26 -20 58 -20q21 0 33.5 12.5t12.5 28.5t-12.5 27t-35.5 11q-17 0 -35 -5l36 85q-119 5 -195 73
l41 82q34 -30 83.5 -48t94.5 -18q39 0 63 14t24 43q0 30 -29 48t-70 29t-82 26t-69.5 49.5t-28.5 87.5q0 76 56.5 115t139.5 39q110 0 186 -54l-42 -85q-76 47 -153 47q-78 0 -78 -53z" />
    <glyph glyph-name="Scaron" unicode="&#x160;" horiz-adv-x="622" 
d="M151 920h102l63 -93l63 93h102l-108 -150h-114zM518 529q-107 65 -205 65q-53 0 -83.5 -19t-30.5 -54t28 -59.5t70 -36t91 -29t91 -37t69.5 -61t27.5 -100.5q0 -92 -73.5 -147t-190.5 -55q-80 0 -155 30t-131 81l51 102q53 -49 116.5 -75.5t120.5 -26.5q62 0 96.5 22.5
t34.5 62.5q0 36 -28 60.5t-70 36t-91 28t-91 35t-70 59.5t-28 99q0 89 70 142t185 53q136 0 245 -72z" />
    <glyph glyph-name="scaron" unicode="&#x161;" horiz-adv-x="470" 
d="M73 752h102l63 -93l63 93h102l-108 -150h-114zM388 398q-76 47 -153 47q-78 0 -78 -53q0 -26 29 -43t70.5 -28.5t83 -27t70.5 -50.5t29 -89q0 -77 -58.5 -117.5t-145.5 -40.5q-60 0 -117.5 19.5t-96.5 54.5l41 82q34 -30 83.5 -48t94.5 -18q39 0 63 14t24 43q0 30 -29 48
t-70 29t-82 26t-69.5 49.5t-28.5 87.5q0 76 56.5 115t139.5 39q110 0 186 -54z" />
    <glyph glyph-name="uni0162" unicode="&#x162;" horiz-adv-x="579" 
d="M348 0h-8l-24 -50q32 -6 51 -26.5t19 -52.5q0 -43 -30.5 -69t-75.5 -26q-50 0 -88 28l22 54q26 -20 58 -20q21 0 33.5 12.5t12.5 28.5t-12.5 27t-35.5 11q-17 0 -35 -5l37 88h-42v594h-221v106h561v-106h-222v-594z" />
    <glyph glyph-name="uni0163" unicode="&#x163;" horiz-adv-x="407" 
d="M272 -50q32 -6 51 -26.5t19 -52.5q0 -43 -30.5 -69t-75.5 -26q-50 0 -88 28l22 54q26 -20 58 -20q21 0 33.5 12.5t12.5 28.5t-12.5 27t-35.5 11q-17 0 -35 -5l36 85q-54 8 -87.5 46.5t-33.5 106.5v276h-75v86h75v146h114v-146h157v-86h-157v-255q0 -40 14 -56t43 -16
q32 0 80 23l29 -88q-44 -27 -91 -35z" />
    <glyph glyph-name="Tcaron" unicode="&#x164;" horiz-adv-x="579" 
d="M129 920h102l63 -93l63 93h102l-108 -150h-114zM9 700h561v-106h-222v-594h-118v594h-221v106z" />
    <glyph glyph-name="tcaron" unicode="&#x165;" horiz-adv-x="407" 
d="M390 742l-30 -168h-78v168h108zM277 99q32 0 80 23l29 -88q-66 -39 -131 -39t-107 39t-42 116v276h-75v86h75v146h114v-146h157v-86h-157v-255q0 -40 14 -56t43 -16z" />
    <glyph glyph-name="Tbar" unicode="&#x166;" horiz-adv-x="579" 
d="M570 594h-222v-197h159v-83h-159v-314h-118v314h-158v83h158v197h-221v106h561v-106z" />
    <glyph glyph-name="tbar" unicode="&#x167;" horiz-adv-x="407" 
d="M357 122l29 -88q-66 -39 -131 -39t-107 39t-42 116v99h-75v84h75v95h-75v84h75v146h114v-146h157v-84h-157v-95h157v-84h-157v-78q0 -40 14 -56t43 -16q32 0 80 23z" />
    <glyph glyph-name="Utilde" unicode="&#x168;" horiz-adv-x="764" 
d="M543 920q0 -131 -91 -131q-33 0 -69.5 27.5t-50.5 27.5q-37 0 -37 -49h-74q0 131 92 131q30 0 67.5 -27.5t51.5 -27.5q38 0 38 49h73zM196 290q0 -88 50.5 -138.5t137.5 -50.5q86 0 135.5 50t49.5 139v410h118v-410q0 -137 -81 -216t-223 -79t-223.5 79t-81.5 216v410
h118v-410z" />
    <glyph glyph-name="utilde" unicode="&#x169;" horiz-adv-x="653" 
d="M268 676q-37 0 -37 -49h-74q0 131 92 131q30 0 67.5 -27.5t51.5 -27.5q38 0 38 49h73q0 -131 -91 -131q-33 0 -69.5 27.5t-50.5 27.5zM453 532h115v-532h-115v104q-52 -106 -190 -108q-91 0 -143 55t-52 150v331h115v-299q0 -60 33 -94.5t91 -34.5q67 1 106.5 47.5
t39.5 118.5v262z" />
    <glyph glyph-name="Umacron" unicode="&#x16a;" horiz-adv-x="764" 
d="M255 892h255v-83h-255v83zM196 290q0 -88 50.5 -138.5t137.5 -50.5q86 0 135.5 50t49.5 139v410h118v-410q0 -137 -81 -216t-223 -79t-223.5 79t-81.5 216v410h118v-410z" />
    <glyph glyph-name="umacron" unicode="&#x16b;" horiz-adv-x="653" 
d="M446 724v-83h-255v83h255zM453 532h115v-532h-115v104q-52 -106 -190 -108q-91 0 -143 55t-52 150v331h115v-299q0 -60 33 -94.5t91 -34.5q67 1 106.5 47.5t39.5 118.5v262z" />
    <glyph glyph-name="Ubreve" unicode="&#x16c;" horiz-adv-x="764" 
d="M319 916q2 -29 19.5 -47t43.5 -18t43.5 18t19.5 47h78q-2 -63 -41.5 -102.5t-99.5 -39.5t-99.5 39.5t-41.5 102.5h78zM196 290q0 -88 50.5 -138.5t137.5 -50.5q86 0 135.5 50t49.5 139v410h118v-410q0 -137 -81 -216t-223 -79t-223.5 79t-81.5 216v410h118v-410z" />
    <glyph glyph-name="ubreve" unicode="&#x16d;" horiz-adv-x="653" 
d="M318 606q-60 0 -99.5 39.5t-41.5 102.5h78q2 -29 19.5 -47t43.5 -18t43.5 18t19.5 47h78q-2 -63 -41.5 -102.5t-99.5 -39.5zM453 532h115v-532h-115v104q-52 -106 -190 -108q-91 0 -143 55t-52 150v331h115v-299q0 -60 33 -94.5t91 -34.5q67 1 106.5 47.5t39.5 118.5v262
z" />
    <glyph glyph-name="Uring" unicode="&#x16e;" horiz-adv-x="764" 
d="M382 969q49 0 83.5 -34.5t34.5 -81.5q0 -48 -34.5 -82t-83.5 -34t-83.5 34t-34.5 82q0 47 34.5 81.5t83.5 34.5zM382 917q-28 0 -48 -19t-20 -45t20 -45t48 -19t48 19t20 45t-20 45t-48 19zM196 290q0 -88 50.5 -138.5t137.5 -50.5q86 0 135.5 50t49.5 139v410h118v-410
q0 -137 -81 -216t-223 -79t-223.5 79t-81.5 216v410h118v-410z" />
    <glyph glyph-name="uring" unicode="&#x16f;" horiz-adv-x="653" 
d="M318 569q-49 0 -83.5 34t-34.5 82q0 47 34.5 81.5t83.5 34.5t83.5 -34.5t34.5 -81.5q0 -48 -34.5 -82t-83.5 -34zM318 749q-28 0 -48 -19t-20 -45t20 -45t48 -19t48 19t20 45t-20 45t-48 19zM453 532h115v-532h-115v104q-52 -106 -190 -108q-91 0 -143 55t-52 150v331
h115v-299q0 -60 33 -94.5t91 -34.5q67 1 106.5 47.5t39.5 118.5v262z" />
    <glyph glyph-name="Uhungarumlaut" unicode="&#x170;" horiz-adv-x="764" 
d="M319 928l98 -44l-92 -110h-89zM484 928l98 -44l-92 -110h-89zM196 290q0 -88 50.5 -138.5t137.5 -50.5q86 0 135.5 50t49.5 139v410h118v-410q0 -137 -81 -216t-223 -79t-223.5 79t-81.5 216v410h118v-410z" />
    <glyph glyph-name="uhungarumlaut" unicode="&#x171;" horiz-adv-x="653" 
d="M353 716l-92 -110h-89l83 154zM426 606h-89l83 154l98 -44zM453 532h115v-532h-115v104q-52 -106 -190 -108q-91 0 -143 55t-52 150v331h115v-299q0 -60 33 -94.5t91 -34.5q67 1 106.5 47.5t39.5 118.5v262z" />
    <glyph glyph-name="Uogonek" unicode="&#x172;" horiz-adv-x="765" 
d="M569 700h118v-410q0 -110 -53.5 -183.5t-149.5 -99.5q-53 -77 -53 -112q0 -15 8 -23.5t21 -8.5q25 0 50 32l33 -39q-36 -57 -95 -57q-32 0 -55.5 19.5t-23.5 58.5q0 49 48 119q-11 -1 -34 -1q-142 0 -223.5 79t-81.5 216v410h117v-410q0 -88 51 -138.5t138 -50.5
q86 0 135.5 50t49.5 139v410z" />
    <glyph glyph-name="uogonek" unicode="&#x173;" horiz-adv-x="647" 
d="M541 0q-50 -67 -50 -105q0 -32 30 -32q24 0 49 32l33 -39q-36 -57 -95 -57q-32 0 -55.5 20t-23.5 58q0 49 52 123h-29v99q-54 -101 -190 -103q-91 0 -142.5 54.5t-51.5 150.5v331h114v-299q0 -60 33.5 -94.5t91.5 -34.5q62 1 100.5 41.5t44.5 103.5v283h114v-532h-25z
" />
    <glyph glyph-name="Wcircumflex" unicode="&#x174;" horiz-adv-x="1036" 
d="M465 920h106l103 -141h-94l-62 88l-62 -88h-94zM3 700h127l170 -569l169 569h116l170 -569l169 569h122l-234 -700h-121l-166 546l-168 -546h-122z" />
    <glyph glyph-name="wcircumflex" unicode="&#x175;" horiz-adv-x="893" 
d="M398 752h106l103 -141h-94l-62 88l-62 -88h-94zM1 532h118l138 -418l134 418h119l135 -418l136 418h117l-194 -532h-119l-135 394l-135 -394h-118z" />
    <glyph glyph-name="Ycircumflex" unicode="&#x176;" horiz-adv-x="637" 
d="M318 867l-62 -88h-94l103 141h106l103 -141h-94zM636 700l-257 -467v-233h-117v229l-261 471h119l200 -341l196 341h120z" />
    <glyph glyph-name="ycircumflex" unicode="&#x177;" horiz-adv-x="531" 
d="M215 752h106l103 -141h-94l-62 88l-62 -88h-94zM294 -73q-50 -126 -173 -126q-69 0 -123 45l49 89q36 -26 69 -26q54 0 81 59l18 40l-220 524h119l159 -403l148 403h115z" />
    <glyph glyph-name="Ydieresis" unicode="&#x178;" horiz-adv-x="637" 
d="M230 789q-26 0 -43.5 18.5t-17.5 44.5q0 28 17.5 45.5t43.5 17.5t43.5 -18t17.5 -45q0 -26 -18 -44.5t-43 -18.5zM407 789q-26 0 -43.5 18.5t-17.5 44.5q0 28 17.5 45.5t43.5 17.5t43.5 -18t17.5 -45q0 -26 -18 -44.5t-43 -18.5zM636 700l-257 -467v-233h-117v229
l-261 471h119l200 -341l196 341h120z" />
    <glyph glyph-name="Zacute" unicode="&#x179;" horiz-adv-x="666" 
d="M376 925l118 -50l-122 -98h-102zM50 700h573v-85l-426 -509h431v-106h-591v85l427 509h-414v106z" />
    <glyph glyph-name="zacute" unicode="&#x17a;" horiz-adv-x="537" 
d="M312 757l118 -50l-122 -98h-102zM54 532l437 -1v-77l-304 -360l313 -1v-94l-455 1v78l304 360h-295v94z" />
    <glyph glyph-name="Zdotaccent" unicode="&#x17b;" horiz-adv-x="666" 
d="M337 921q29 0 48 -19.5t19 -49.5q0 -29 -19 -48.5t-48 -19.5t-48 19.5t-19 48.5q0 30 19 49.5t48 19.5zM50 700h573v-85l-426 -509h431v-106h-591v85l427 509h-414v106z" />
    <glyph glyph-name="zdotaccent" unicode="&#x17c;" horiz-adv-x="537" 
d="M273 753q29 0 48 -19.5t19 -49.5q0 -29 -19 -48.5t-48 -19.5t-48 19.5t-19 48.5q0 30 19 49.5t48 19.5zM54 532l437 -1v-77l-304 -360l313 -1v-94l-455 1v78l304 360h-295v94z" />
    <glyph glyph-name="Zcaron" unicode="&#x17d;" horiz-adv-x="666" 
d="M169 920h102l63 -93l63 93h102l-108 -150h-114zM50 700h573v-85l-426 -509h431v-106h-591v85l427 509h-414v106z" />
    <glyph glyph-name="zcaron" unicode="&#x17e;" horiz-adv-x="537" 
d="M105 752h102l63 -93l63 93h102l-108 -150h-114zM54 532l437 -1v-77l-304 -360l313 -1v-94l-455 1v78l304 360h-295v94z" />
    <glyph glyph-name="uni018F" unicode="&#x18f;" horiz-adv-x="780" 
d="M391 -5q-160 0 -260.5 108t-100.5 278h599q-10 93 -77.5 154.5t-159.5 61.5q-61 0 -114 -26.5t-88 -73.5l-85 82q113 124 286 124q150 0 252.5 -101.5t102.5 -251.5t-102.5 -252.5t-252.5 -102.5zM392 101q84 0 147 48.5t84 128.5h-465q21 -81 83.5 -129t150.5 -48z" />
    <glyph glyph-name="florin" unicode="&#x192;" horiz-adv-x="372" 
d="M334 655q-37 1 -62.5 -23t-30.5 -65l-13 -103h140l-9 -80h-140l-51 -414q-10 -79 -56.5 -124.5t-121.5 -44.5q-64 2 -109 38l32 85q28 -25 65 -27q34 -1 53.5 23t24.5 67l49 397h-69l9 80h69l15 119q10 78 61 124t128 45q75 -2 128 -38l-41 -85q-33 26 -71 26z" />
    <glyph glyph-name="Ohorn" unicode="&#x1a0;" horiz-adv-x="810" 
d="M596 655q83 -47 131.5 -127t48.5 -178q0 -150 -107 -252.5t-264 -102.5t-264 102.5t-107 252.5t107 251.5t264 101.5q43 0 84 -9q37 6 60.5 33t23.5 65h88q0 -85 -65 -137zM406 101q103 0 176 72.5t73 176.5t-73 175.5t-176 71.5q-104 0 -178 -71.5t-74 -175.5
t74.5 -176.5t177.5 -72.5z" />
    <glyph glyph-name="ohorn" unicode="&#x1a1;" horiz-adv-x="625" 
d="M506 468q84 -76 84 -201q0 -121 -77 -196t-200 -75q-124 0 -201 75t-77 196q0 120 77 194.5t201 74.5q62 0 110 -19q31 10 49.5 35t18.5 59h88q0 -91 -73 -143zM313 92q72 0 117 48t45 125q0 76 -45.5 124.5t-116.5 48.5q-72 0 -117.5 -48.5t-45.5 -124.5
q0 -77 45.5 -125t117.5 -48z" />
    <glyph glyph-name="Uhorn" unicode="&#x1af;" horiz-adv-x="764" 
d="M780 792q0 -51 -25 -92t-68 -64v-346q0 -137 -81 -216t-223 -79t-223.5 79t-81.5 216v410h118v-410q0 -88 50.5 -138.5t137.5 -50.5q86 0 135.5 50t49.5 139v410h60q29 11 46 35.5t17 56.5h88z" />
    <glyph glyph-name="uhorn" unicode="&#x1b0;" horiz-adv-x="653" 
d="M686 611q0 -58 -32 -103t-86 -64v-444h-115v104q-52 -106 -190 -108q-91 0 -143 55t-52 150v331h115v-299q0 -60 33 -94.5t91 -34.5q67 1 106.5 47.5t39.5 118.5v262h106q39 29 39 79h88z" />
    <glyph glyph-name="uni01C4" unicode="&#x1c4;" horiz-adv-x="1441" 
d="M944 920h102l63 -93l63 93h102l-108 -150h-114zM379 700q157 0 259.5 -99t102.5 -251t-103 -251t-262 -99h-284v700h287zM825 700h573v-85l-426 -509h431v-106h-591v85l427 509h-414v106zM382 106q103 0 171.5 68.5t68.5 174.5t-70.5 175.5t-174.5 69.5h-167v-488h172z
" />
    <glyph glyph-name="uni01C5" unicode="&#x1c5;" horiz-adv-x="1312" 
d="M880 752h102l63 -93l63 93h102l-108 -150h-114zM379 700q157 0 259.5 -99t102.5 -251t-103 -251t-262 -99h-284v700h287zM382 106q103 0 171.5 68.5t68.5 174.5t-70.5 175.5t-174.5 69.5h-167v-488h172zM829 532l437 -1v-77l-304 -360l313 -1v-94l-455 1v78l304 360h-295
v94z" />
    <glyph glyph-name="uni01C6" unicode="&#x1c6;" horiz-adv-x="1219" 
d="M1009 602h-114l-108 150h102l63 -93l63 93h102zM477 440v302h115v-742h-115v91q-59 -96 -187 -96q-114 0 -184.5 75.5t-70.5 197.5q0 120 70 194.5t183 74.5q128 0 189 -97zM869 94l313 -1v-94l-455 1v78l304 360h-295v94l437 -1v-77zM314 91q72 0 117.5 48.5t45.5 124.5
q0 77 -45.5 126t-117.5 49t-117.5 -49t-46.5 -126q1 -76 46.5 -124.5t117.5 -48.5z" />
    <glyph glyph-name="uni01C7" unicode="&#x1c7;" horiz-adv-x="1033" 
d="M92 700h118v-593h303v-107h-421v700zM956 216q0 -105 -58 -163t-160 -58q-124 0 -206 101l56 90q71 -77 149 -77q48 0 74 28.5t26 82.5v374h-242v106h361v-484z" />
    <glyph glyph-name="uni01C8" unicode="&#x1c8;" horiz-adv-x="821" 
d="M675 754q31 0 51 -19.5t20 -50.5q0 -30 -20 -50t-51 -20q-30 0 -50 20t-20 50q0 31 20 50.5t50 19.5zM92 700h118v-593h303v-107h-421v700zM732 -15q0 -89 -51 -136.5t-121 -47.5q-62 0 -111 36l38 89q34 -24 68 -24q28 0 45.5 18t17.5 54v558h114v-547z" />
    <glyph glyph-name="uni01C9" unicode="&#x1c9;" horiz-adv-x="582" 
d="M436 754q31 0 51 -19.5t20 -50.5q0 -30 -20 -50t-51 -20q-30 0 -50 20t-20 50q0 31 20 50.5t50 19.5zM90 742h115v-742h-115v742zM493 -15q0 -89 -51 -136.5t-121 -47.5q-62 0 -111 36l38 89q34 -24 68 -24q28 0 45.5 18t17.5 54v558h114v-547z" />
    <glyph glyph-name="uni01CA" unicode="&#x1ca;" horiz-adv-x="1291" 
d="M92 700h116l375 -503v503h116v-700h-116l-373 502v-502h-118v700zM1214 216q0 -105 -58 -163t-160 -58q-124 0 -206 101l56 90q71 -77 149 -77q48 0 74 28.5t26 82.5v374h-242v106h361v-484z" />
    <glyph glyph-name="uni01CB" unicode="&#x1cb;" horiz-adv-x="1079" 
d="M933 754q31 0 51 -19.5t20 -50.5q0 -30 -20 -50t-51 -20q-30 0 -50 20t-20 50q0 31 20 50.5t50 19.5zM92 700h116l375 -503v503h116v-700h-116l-373 502v-502h-118v700zM990 -15q0 -89 -51 -136.5t-121 -47.5q-62 0 -111 36l38 89q34 -24 68 -24q28 0 45.5 18t17.5 54
v558h114v-547z" />
    <glyph glyph-name="uni01CC" unicode="&#x1cc;" horiz-adv-x="950" 
d="M804 614q-30 0 -50 20t-20 50q0 31 20 50.5t50 19.5q31 0 51 -19.5t20 -50.5q0 -30 -20 -50t-51 -20zM594 0h-115v299q0 60 -34 94.5t-94 34.5q-64 -1 -104.5 -41t-46.5 -104v-283h-115v532h115v-102q54 106 196 106q93 0 145.5 -54.5t52.5 -150.5v-331zM747 -26v558h114
v-547q0 -89 -51 -136.5t-121 -47.5q-62 0 -111 36l38 89q34 -24 68 -24q28 0 45.5 18t17.5 54z" />
    <glyph glyph-name="Gcaron" unicode="&#x1e6;" horiz-adv-x="749" 
d="M444 773h-114l-108 150h102l63 -93l63 93h102zM571 149v195h103v-258q-54 -41 -127.5 -66t-144.5 -25q-155 0 -261.5 102.5t-106.5 252.5t108 251.5t267 101.5q74 0 145.5 -26.5t123.5 -71.5l-67 -87q-86 80 -202 80q-107 0 -181 -72t-74 -176q0 -105 74.5 -177
t181.5 -72q81 0 161 48z" />
    <glyph glyph-name="gcaron" unicode="&#x1e7;" horiz-adv-x="640" 
d="M377 605h-114l-108 150h102l63 -93l63 93h102zM451 532h114v-480q0 -114 -75 -181.5t-201 -67.5q-118 0 -221 70l49 83q78 -58 167 -58q76 0 121.5 41t45.5 110v67q-56 -90 -176 -90q-108 0 -174 71t-66 186q0 113 65 182.5t171 70.5q122 1 180 -90v86zM298 116
q67 0 110 46t43 118t-42.5 117.5t-110.5 45.5t-111 -45.5t-44 -117.5q1 -72 43.5 -118t111.5 -46z" />
    <glyph glyph-name="uni01EA" unicode="&#x1ea;" horiz-adv-x="810" 
d="M776 350q0 -145 -100.5 -246t-249.5 -108q-47 -68 -47 -102q0 -15 8.5 -23.5t22.5 -8.5q24 0 49 32l33 -39q-36 -57 -95 -57q-32 0 -55.5 19.5t-23.5 58.5q0 51 50 121q-144 13 -239 113t-95 240q0 150 107 251.5t264 101.5t264 -101.5t107 -251.5zM154 350
q0 -104 74.5 -176.5t177.5 -72.5t176 72.5t73 176.5t-73 175.5t-176 71.5q-104 0 -178 -71.5t-74 -175.5z" />
    <glyph glyph-name="uni01EB" unicode="&#x1eb;" horiz-adv-x="625" 
d="M590 267q0 -115 -71 -189.5t-185 -80.5q-48 -68 -48 -103q0 -15 8.5 -23.5t22.5 -8.5q24 0 49 32l33 -39q-36 -57 -95 -57q-32 0 -55.5 19.5t-23.5 58.5q0 51 51 122q-109 11 -175 84.5t-66 184.5q0 120 77 194.5t201 74.5q123 0 200 -74.5t77 -194.5zM150 265
q0 -77 45.5 -125t117.5 -48t117 48t45 125q0 76 -45.5 124.5t-116.5 48.5q-72 0 -117.5 -48.5t-45.5 -124.5z" />
    <glyph glyph-name="Aringacute" unicode="&#x1fa;" horiz-adv-x="738" 
d="M536 1106l-122 -98h-102l106 148zM369 737q-49 0 -83.5 34t-34.5 82q0 47 34.5 81.5t83.5 34.5t83.5 -34.5t34.5 -81.5q0 -48 -34.5 -82t-83.5 -34zM369 917q-28 0 -48 -19t-20 -45t20 -45t48 -19t48 19t20 45t-20 45t-48 19zM611 0l-67 158h-353l-67 -158h-123l309 700
h121l306 -700h-126zM235 263h264l-132 311z" />
    <glyph glyph-name="aringacute" unicode="&#x1fb;" horiz-adv-x="586" 
d="M457 938l-122 -98h-102l106 148zM290 569q-49 0 -83.5 34t-34.5 82q0 47 34.5 81.5t83.5 34.5t83.5 -34.5t34.5 -81.5q0 -48 -34.5 -82t-83.5 -34zM290 749q-28 0 -48 -19t-20 -45t20 -45t48 -19t48 19t20 45t-20 45t-48 19zM517 0h-113v65q-57 -70 -176 -70
q-85 0 -136 46.5t-51 118.5q0 73 53 116t148 44h161v16q0 51 -32.5 79t-94.5 28q-78 0 -157 -54l-47 80q61 36 109.5 51.5t119.5 15.5q102 0 158 -49.5t57 -137.5zM252 86q61 0 103.5 28.5t47.5 72.5v49h-144q-57 0 -83.5 -16.5t-26.5 -54.5q0 -36 27.5 -57.5t75.5 -21.5z
" />
    <glyph glyph-name="AEacute" unicode="&#x1fc;" horiz-adv-x="1051" 
d="M793 875l-122 -98h-102l106 148zM605 106h394v-106h-511v173h-266l-98 -173h-123l406 700h580v-106h-382v-190h343v-105h-343v-193zM274 265h214v337h-24z" />
    <glyph glyph-name="aeacute" unicode="&#x1fd;" horiz-adv-x="975" 
d="M537 757l118 -50l-122 -98h-102zM521 226q0 -55 50.5 -96t117.5 -41q90 0 150 62l62 -65q-84 -90 -221 -90q-77 0 -136 32.5t-90 93.5q-64 -127 -227 -127q-84 0 -135 44t-51 116q0 71 52.5 110.5t149.5 40.5h162v31q0 51 -33 78.5t-95 27.5q-85 0 -176 -54l-29 83
q118 64 229 64q132 0 187 -77q71 77 189 77q123 0 195.5 -81t68.5 -214h-420v-15zM826 303q-2 67 -43 108t-105 41q-62 0 -105.5 -41t-51.5 -108h305zM265 244q-56 0 -86 -20.5t-30 -58.5q0 -40 28.5 -64.5t75.5 -24.5q107 0 153 93l-1 75h-140z" />
    <glyph glyph-name="Oslashacute" unicode="&#x1fe;" horiz-adv-x="810" 
d="M572 875l-122 -98h-102l106 148zM629 634q69 -48 108 -122t39 -162q0 -150 -107 -252.5t-264 -102.5q-93 0 -176 40l-60 -90h-69l80 120q-68 49 -107 123.5t-39 161.5q0 150 107 251.5t264 101.5q94 0 174 -39l61 91h70zM154 350q0 -116 89 -190l275 411q-52 26 -112 26
q-104 0 -178 -71.5t-74 -175.5zM406 101q103 0 176 72.5t73 176.5q0 116 -89 190l-275 -412q56 -27 115 -27z" />
    <glyph glyph-name="oslashacute" unicode="&#x1ff;" horiz-adv-x="625" 
d="M480 707l-122 -98h-102l106 148zM458 501q62 -33 97 -94t35 -140q0 -121 -77 -196t-200 -75q-53 0 -103 16l-54 -107h-52l64 125q-63 34 -98 95.5t-35 141.5q0 120 77 194.5t201 74.5q53 0 103 -16l54 107h52zM144 265q0 -100 67 -149l162 320q-26 10 -60 10
q-75 0 -122 -50t-47 -131zM313 83q74 0 121.5 50.5t47.5 131.5q0 99 -68 149l-162 -321q30 -10 61 -10z" />
    <glyph glyph-name="uni0200" unicode="&#x200;" horiz-adv-x="738" 
d="M341 777h-89l-92 110l98 44zM506 777h-89l-92 110l98 44zM611 0l-67 158h-353l-67 -158h-123l309 700h121l306 -700h-126zM235 263h264l-132 311z" />
    <glyph glyph-name="uni0201" unicode="&#x201;" horiz-adv-x="586" 
d="M262 609h-89l-92 110l98 44zM427 609h-89l-92 110l98 44zM517 0h-113v65q-57 -70 -176 -70q-85 0 -136 46.5t-51 118.5q0 73 53 116t148 44h161v16q0 51 -32.5 79t-94.5 28q-78 0 -157 -54l-47 80q61 36 109.5 51.5t119.5 15.5q102 0 158 -49.5t57 -137.5zM252 86
q61 0 103.5 28.5t47.5 72.5v49h-144q-57 0 -83.5 -16.5t-26.5 -54.5q0 -36 27.5 -57.5t75.5 -21.5z" />
    <glyph glyph-name="uni0202" unicode="&#x202;" horiz-adv-x="738" 
d="M369 841q-26 0 -44 -18.5t-19 -47.5h-78q2 64 41.5 103t99.5 39t99.5 -39t41.5 -103h-78q-1 29 -19 47.5t-44 18.5zM611 0l-67 158h-353l-67 -158h-123l309 700h121l306 -700h-126zM235 263h264l-132 311z" />
    <glyph glyph-name="uni0203" unicode="&#x203;" horiz-adv-x="586" 
d="M290 673q-26 0 -44 -18.5t-19 -47.5h-78q2 64 41.5 103t99.5 39t99.5 -39t41.5 -103h-78q-1 29 -19 47.5t-44 18.5zM517 0h-113v65q-57 -70 -176 -70q-85 0 -136 46.5t-51 118.5q0 73 53 116t148 44h161v16q0 51 -32.5 79t-94.5 28q-78 0 -157 -54l-47 80
q61 36 109.5 51.5t119.5 15.5q102 0 158 -49.5t57 -137.5zM252 86q61 0 103.5 28.5t47.5 72.5v49h-144q-57 0 -83.5 -16.5t-26.5 -54.5q0 -36 27.5 -57.5t75.5 -21.5z" />
    <glyph glyph-name="uni0204" unicode="&#x204;" horiz-adv-x="656" 
d="M240 931l83 -154h-89l-92 110zM405 931l83 -154h-89l-92 110zM92 700h500v-106h-382v-190h342v-105h-342v-193h394v-106h-512v700z" />
    <glyph glyph-name="uni0205" unicode="&#x205;" horiz-adv-x="588" 
d="M271 609h-89l-92 110l98 44zM436 609h-89l-92 110l98 44zM304 536q137 0 198.5 -82.5t50.5 -231.5h-402q14 -62 58 -97.5t107 -35.5q90 0 150 62l61 -65q-82 -90 -220 -90q-123 0 -197.5 74.5t-74.5 194.5t75 195t194 76zM149 306h304q-3 64 -43 101t-105 37
q-63 0 -105 -37t-51 -101z" />
    <glyph glyph-name="uni0206" unicode="&#x206;" horiz-adv-x="656" 
d="M288 775h-78q2 64 41.5 103t99.5 39t99.5 -39t41.5 -103h-78q-1 29 -19 47.5t-44 18.5t-44 -18.5t-19 -47.5zM92 700h500v-106h-382v-190h342v-105h-342v-193h394v-106h-512v700z" />
    <glyph glyph-name="uni0207" unicode="&#x207;" horiz-adv-x="588" 
d="M299 673q-26 0 -44 -18.5t-19 -47.5h-78q2 64 41.5 103t99.5 39t99.5 -39t41.5 -103h-78q-1 29 -19 47.5t-44 18.5zM304 536q137 0 198.5 -82.5t50.5 -231.5h-402q14 -62 58 -97.5t107 -35.5q90 0 150 62l61 -65q-82 -90 -220 -90q-123 0 -197.5 74.5t-74.5 194.5t75 195
t194 76zM149 306h304q-3 64 -43 101t-105 37q-63 0 -105 -37t-51 -101z" />
    <glyph glyph-name="uni0208" unicode="&#x208;" horiz-adv-x="302" 
d="M40 931l83 -154h-89l-92 110zM205 931l83 -154h-89l-92 110zM92 700h118v-700h-118v700z" />
    <glyph glyph-name="uni0209" unicode="&#x209;" horiz-adv-x="284" 
d="M31 763l83 -154h-89l-92 110zM196 763l83 -154h-89l-92 110zM85 532h114v-532h-114v532z" />
    <glyph glyph-name="uni020A" unicode="&#x20a;" horiz-adv-x="302" 
d="M88 775h-78q2 64 41.5 103t99.5 39t99.5 -39t41.5 -103h-78q-1 29 -19 47.5t-44 18.5t-44 -18.5t-19 -47.5zM92 700h118v-700h-118v700z" />
    <glyph glyph-name="uni020B" unicode="&#x20b;" horiz-adv-x="284" 
d="M79 607h-78q2 64 41.5 103t99.5 39t99.5 -39t41.5 -103h-78q-1 29 -19 47.5t-44 18.5t-44 -18.5t-19 -47.5zM85 532h114v-532h-114v532z" />
    <glyph glyph-name="uni020C" unicode="&#x20c;" horiz-adv-x="810" 
d="M289 931l83 -154h-89l-92 110zM454 931l83 -154h-89l-92 110zM405 703q157 0 264 -101.5t107 -251.5t-107 -252.5t-264 -102.5t-264 102.5t-107 252.5t107 251.5t264 101.5zM406 597q-104 0 -178 -71.5t-74 -175.5t74.5 -176.5t177.5 -72.5t176 72.5t73 176.5t-73 175.5
t-176 71.5z" />
    <glyph glyph-name="uni020D" unicode="&#x20d;" horiz-adv-x="625" 
d="M202 763l83 -154h-89l-92 110zM367 763l83 -154h-89l-92 110zM313 536q123 0 200 -74.5t77 -194.5q0 -121 -77 -196t-200 -75q-124 0 -201 75t-77 196q0 120 77 194.5t201 74.5zM313 438q-72 0 -117.5 -48.5t-45.5 -124.5q0 -77 45.5 -125t117.5 -48t117 48t45 125
q0 76 -45.5 124.5t-116.5 48.5z" />
    <glyph glyph-name="uni020E" unicode="&#x20e;" horiz-adv-x="810" 
d="M337 775h-78q2 64 41.5 103t99.5 39t99.5 -39t41.5 -103h-78q-1 29 -19 47.5t-44 18.5t-44 -18.5t-19 -47.5zM405 703q157 0 264 -101.5t107 -251.5t-107 -252.5t-264 -102.5t-264 102.5t-107 252.5t107 251.5t264 101.5zM406 597q-104 0 -178 -71.5t-74 -175.5
t74.5 -176.5t177.5 -72.5t176 72.5t73 176.5t-73 175.5t-176 71.5z" />
    <glyph glyph-name="uni020F" unicode="&#x20f;" horiz-adv-x="625" 
d="M250 607h-78q2 64 41.5 103t99.5 39t99.5 -39t41.5 -103h-78q-1 29 -19 47.5t-44 18.5t-44 -18.5t-19 -47.5zM313 536q123 0 200 -74.5t77 -194.5q0 -121 -77 -196t-200 -75q-124 0 -201 75t-77 196q0 120 77 194.5t201 74.5zM313 438q-72 0 -117.5 -48.5t-45.5 -124.5
q0 -77 45.5 -125t117.5 -48t117 48t45 125q0 76 -45.5 124.5t-116.5 48.5z" />
    <glyph glyph-name="uni0210" unicode="&#x210;" horiz-adv-x="723" 
d="M327 777h-89l-92 110l98 44zM492 777h-89l-92 110l98 44zM670 0h-134l-128 212q-10 -1 -32 -1h-166v-211h-118v700h284q134 0 208 -62.5t74 -176.5q0 -84 -37.5 -142t-107.5 -85zM210 317h166q170 0 170 141q0 136 -170 136h-166v-277z" />
    <glyph glyph-name="uni0211" unicode="&#x211;" horiz-adv-x="394" 
d="M211 609h-89l-92 110l98 44zM376 609h-89l-92 110l98 44zM200 426q55 110 184 110v-110q-79 4 -128 -37t-56 -111v-278h-115v532h115v-106z" />
    <glyph glyph-name="uni0212" unicode="&#x212;" horiz-adv-x="723" 
d="M355 841q-26 0 -44 -18.5t-19 -47.5h-78q2 64 41.5 103t99.5 39t99.5 -39t41.5 -103h-78q-1 29 -19 47.5t-44 18.5zM670 0h-134l-128 212q-10 -1 -32 -1h-166v-211h-118v700h284q134 0 208 -62.5t74 -176.5q0 -84 -37.5 -142t-107.5 -85zM210 317h166q170 0 170 141
q0 136 -170 136h-166v-277z" />
    <glyph glyph-name="uni0213" unicode="&#x213;" horiz-adv-x="394" 
d="M239 673q-26 0 -44 -18.5t-19 -47.5h-78q2 64 41.5 103t99.5 39t99.5 -39t41.5 -103h-78q-1 29 -19 47.5t-44 18.5zM200 426q55 110 184 110v-110q-79 4 -128 -37t-56 -111v-278h-115v532h115v-106z" />
    <glyph glyph-name="uni0214" unicode="&#x214;" horiz-adv-x="764" 
d="M271 931l83 -154h-89l-92 110zM436 931l83 -154h-89l-92 110zM196 290q0 -88 50.5 -138.5t137.5 -50.5q86 0 135.5 50t49.5 139v410h118v-410q0 -137 -81 -216t-223 -79t-223.5 79t-81.5 216v410h118v-410z" />
    <glyph glyph-name="uni0215" unicode="&#x215;" horiz-adv-x="653" 
d="M290 609h-89l-92 110l98 44zM455 609h-89l-92 110l98 44zM453 532h115v-532h-115v104q-52 -106 -190 -108q-91 0 -143 55t-52 150v331h115v-299q0 -60 33 -94.5t91 -34.5q67 1 106.5 47.5t39.5 118.5v262z" />
    <glyph glyph-name="uni0216" unicode="&#x216;" horiz-adv-x="764" 
d="M319 775h-78q2 64 41.5 103t99.5 39t99.5 -39t41.5 -103h-78q-1 29 -19 47.5t-44 18.5t-44 -18.5t-19 -47.5zM196 290q0 -88 50.5 -138.5t137.5 -50.5q86 0 135.5 50t49.5 139v410h118v-410q0 -137 -81 -216t-223 -79t-223.5 79t-81.5 216v410h118v-410z" />
    <glyph glyph-name="uni0217" unicode="&#x217;" horiz-adv-x="653" 
d="M318 673q-26 0 -44 -18.5t-19 -47.5h-78q2 64 41.5 103t99.5 39t99.5 -39t41.5 -103h-78q-1 29 -19 47.5t-44 18.5zM453 532h115v-532h-115v104q-52 -106 -190 -108q-91 0 -143 55t-52 150v331h115v-299q0 -60 33 -94.5t91 -34.5q67 1 106.5 47.5t39.5 118.5v262z" />
    <glyph glyph-name="Scommaaccent" unicode="&#x218;" horiz-adv-x="622" 
d="M199 521q0 -35 28 -59.5t70 -36t91 -29t91 -37t69.5 -61t27.5 -100.5q0 -92 -73.5 -147t-190.5 -55q-80 0 -155 30t-131 81l51 102q53 -49 116.5 -75.5t120.5 -26.5q62 0 96.5 22.5t34.5 62.5q0 36 -28 60.5t-70 36t-91 28t-91 35t-70 59.5t-28 99q0 89 70 142t185 53
q136 0 245 -72l-49 -104q-107 65 -205 65q-53 0 -83.5 -19t-30.5 -54zM316 -50q25 0 43 -17t18 -45q0 -26 -18 -52l-57 -85h-59l38 86q-27 17 -27 50q0 27 17.5 45t44.5 18z" />
    <glyph glyph-name="scommaaccent" unicode="&#x219;" horiz-adv-x="470" 
d="M157 392q0 -26 29 -43t70.5 -28.5t83 -27t70.5 -50.5t29 -89q0 -77 -58.5 -117.5t-145.5 -40.5q-60 0 -117.5 19.5t-96.5 54.5l41 82q34 -30 83.5 -48t94.5 -18q39 0 63 14t24 43q0 30 -29 48t-70 29t-82 26t-69.5 49.5t-28.5 87.5q0 76 56.5 115t139.5 39q110 0 186 -54
l-42 -85q-76 47 -153 47q-78 0 -78 -53zM234 -50q25 0 43 -17t18 -45q0 -26 -18 -52l-57 -85h-59l38 86q-27 17 -27 50q0 27 17.5 45t44.5 18z" />
    <glyph glyph-name="uni021A" unicode="&#x21a;" horiz-adv-x="579" 
d="M9 700h561v-106h-222v-594h-118v594h-221v106zM289 -50q25 0 43 -17t18 -45q0 -26 -18 -52l-57 -85h-59l38 86q-27 17 -27 50q0 27 17.5 45t44.5 18z" />
    <glyph glyph-name="uni021B" unicode="&#x21b;" horiz-adv-x="407" 
d="M386 34q-66 -39 -131 -39t-107 39t-42 116v276h-75v86h75v146h114v-146h157v-86h-157v-255q0 -40 14 -56t43 -16q32 0 80 23zM245 -50q25 0 43 -17t18 -45q0 -26 -18 -52l-57 -85h-59l38 86q-27 17 -27 50q0 27 17.5 45t44.5 18z" />
    <glyph glyph-name="uni022A" unicode="&#x22a;" horiz-adv-x="810" 
d="M272 1067h255v-83h-255v83zM311 915q26 0 43.5 -18t17.5 -45q0 -26 -18 -44.5t-43 -18.5q-26 0 -43.5 18.5t-17.5 44.5q0 28 17.5 45.5t43.5 17.5zM488 915q26 0 43.5 -18t17.5 -45q0 -26 -18 -44.5t-43 -18.5q-26 0 -43.5 18.5t-17.5 44.5q0 28 17.5 45.5t43.5 17.5z
M405 703q157 0 264 -101.5t107 -251.5t-107 -252.5t-264 -102.5t-264 102.5t-107 252.5t107 251.5t264 101.5zM406 597q-104 0 -178 -71.5t-74 -175.5t74.5 -176.5t177.5 -72.5t176 72.5t73 176.5t-73 175.5t-176 71.5z" />
    <glyph glyph-name="uni022B" unicode="&#x22b;" horiz-adv-x="625" 
d="M185 899h255v-83h-255v83zM224 747q26 0 43.5 -18t17.5 -45q0 -26 -18 -44.5t-43 -18.5q-26 0 -43.5 18.5t-17.5 44.5q0 28 17.5 45.5t43.5 17.5zM401 747q26 0 43.5 -18t17.5 -45q0 -26 -18 -44.5t-43 -18.5q-26 0 -43.5 18.5t-17.5 44.5q0 28 17.5 45.5t43.5 17.5z
M313 536q123 0 200 -74.5t77 -194.5q0 -121 -77 -196t-200 -75q-124 0 -201 75t-77 196q0 120 77 194.5t201 74.5zM313 438q-72 0 -117.5 -48.5t-45.5 -124.5q0 -77 45.5 -125t117.5 -48t117 48t45 125q0 76 -45.5 124.5t-116.5 48.5z" />
    <glyph glyph-name="uni022C" unicode="&#x22c;" horiz-adv-x="810" 
d="M272 1068h255v-83h-255v83zM561 920q0 -131 -91 -131q-33 0 -69.5 27.5t-50.5 27.5q-37 0 -37 -49h-74q0 131 92 131q30 0 67.5 -27.5t51.5 -27.5q38 0 38 49h73zM405 703q157 0 264 -101.5t107 -251.5t-107 -252.5t-264 -102.5t-264 102.5t-107 252.5t107 251.5
t264 101.5zM406 597q-104 0 -178 -71.5t-74 -175.5t74.5 -176.5t177.5 -72.5t176 72.5t73 176.5t-73 175.5t-176 71.5z" />
    <glyph glyph-name="uni022D" unicode="&#x22d;" horiz-adv-x="625" 
d="M185 900h255v-83h-255v83zM474 752q0 -131 -91 -131q-33 0 -69.5 27.5t-50.5 27.5q-37 0 -37 -49h-74q0 131 92 131q30 0 67.5 -27.5t51.5 -27.5q38 0 38 49h73zM313 536q123 0 200 -74.5t77 -194.5q0 -121 -77 -196t-200 -75q-124 0 -201 75t-77 196q0 120 77 194.5
t201 74.5zM313 438q-72 0 -117.5 -48.5t-45.5 -124.5q0 -77 45.5 -125t117.5 -48t117 48t45 125q0 76 -45.5 124.5t-116.5 48.5z" />
    <glyph glyph-name="uni0230" unicode="&#x230;" horiz-adv-x="810" 
d="M272 1047h255v-83h-255v83zM400 921q29 0 48 -19.5t19 -49.5q0 -29 -19 -48.5t-48 -19.5t-48 19.5t-19 48.5q0 30 19 49.5t48 19.5zM405 703q157 0 264 -101.5t107 -251.5t-107 -252.5t-264 -102.5t-264 102.5t-107 252.5t107 251.5t264 101.5zM406 597
q-104 0 -178 -71.5t-74 -175.5t74.5 -176.5t177.5 -72.5t176 72.5t73 176.5t-73 175.5t-176 71.5z" />
    <glyph glyph-name="uni0231" unicode="&#x231;" horiz-adv-x="625" 
d="M185 879h255v-83h-255v83zM313 753q29 0 48 -19.5t19 -49.5q0 -29 -19 -48.5t-48 -19.5t-48 19.5t-19 48.5q0 30 19 49.5t48 19.5zM313 536q123 0 200 -74.5t77 -194.5q0 -121 -77 -196t-200 -75q-124 0 -201 75t-77 196q0 120 77 194.5t201 74.5zM313 438
q-72 0 -117.5 -48.5t-45.5 -124.5q0 -77 45.5 -125t117.5 -48t117 48t45 125q0 76 -45.5 124.5t-116.5 48.5z" />
    <glyph glyph-name="uni0232" unicode="&#x232;" horiz-adv-x="637" 
d="M445 873v-83h-255v83h255zM636 700l-257 -467v-233h-117v229l-261 471h119l200 -341l196 341h120z" />
    <glyph glyph-name="uni0233" unicode="&#x233;" horiz-adv-x="531" 
d="M140 705h255v-83h-255v83zM294 -73q-50 -126 -173 -126q-69 0 -123 45l49 89q36 -26 69 -26q54 0 81 59l18 40l-220 524h119l159 -403l148 403h115z" />
    <glyph glyph-name="uni0237" unicode="&#x237;" horiz-adv-x="274" 
d="M199 -24q0 -84 -43 -129.5t-120 -44.5q-73 2 -127 36l29 84q34 -22 74 -24q35 -1 53.5 23.5t18.5 71.5v539h115v-556z" />
    <glyph glyph-name="uni0259" unicode="&#x259;" horiz-adv-x="588" 
d="M281 536q123 0 197.5 -74.5t74.5 -194.5t-75 -195t-194 -76q-137 0 -198.5 82.5t-50.5 231.5h402q-14 62 -58 97.5t-107 35.5q-90 0 -150 -62l-61 65q82 90 220 90zM283 88q63 0 105 37t51 101h-304q3 -64 43 -101t105 -37z" />
    <glyph glyph-name="uni02BB" unicode="&#x2bb;" 
d="M0 503l-108 24l30 173h78v-197z" />
    <glyph glyph-name="uni02BC" unicode="&#x2bc;" horiz-adv-x="174" 
d="M93 752q25 0 43 -17t18 -45q0 -26 -18 -52l-57 -85h-59l38 86q-27 17 -27 50q0 27 17.5 45t44.5 18z" />
    <glyph glyph-name="uni02BE" unicode="&#x2be;" horiz-adv-x="350" 
d="M175 569v52q28 0 48 19t20 45t-20 45t-48 19v53q49 0 83.5 -34.5t34.5 -82.5q0 -47 -34.5 -81.5t-83.5 -34.5z" />
    <glyph glyph-name="uni02BF" unicode="&#x2bf;" horiz-adv-x="350" 
d="M175 569v52q-28 0 -48 19t-20 45t20 45t48 19v53q-49 0 -83.5 -34.5t-34.5 -82.5q0 -47 34.5 -81.5t83.5 -34.5z" />
    <glyph glyph-name="circumflex" unicode="&#x2c6;" horiz-adv-x="350" 
d="M122 755h106l103 -141h-94l-62 88l-62 -88h-94z" />
    <glyph glyph-name="caron" unicode="&#x2c7;" horiz-adv-x="350" 
d="M10 755h102l63 -93l63 93h102l-108 -150h-114z" />
    <glyph glyph-name="uni02C8" unicode="&#x2c8;" horiz-adv-x="123" 
d="M20 523v177h83v-177h-83z" />
    <glyph glyph-name="uni02C9" unicode="&#x2c9;" horiz-adv-x="350" 
d="M48 724h255v-83h-255v83z" />
    <glyph glyph-name="uni02CA" unicode="&#x2ca;" horiz-adv-x="350" 
d="M168 757l118 -50l-122 -98h-102z" />
    <glyph glyph-name="uni02CB" unicode="&#x2cb;" horiz-adv-x="350" 
d="M174 757l106 -148h-102l-122 98z" />
    <glyph glyph-name="uni02CC" unicode="&#x2cc;" horiz-adv-x="123" 
d="M20 -208v177h83v-177h-83z" />
    <glyph glyph-name="breve" unicode="&#x2d8;" horiz-adv-x="350" 
d="M112 749q2 -29 19.5 -47t43.5 -18t43.5 18t19.5 47h78q-2 -63 -41.5 -102.5t-99.5 -39.5t-99.5 39.5t-41.5 102.5h78z" />
    <glyph glyph-name="dotaccent" unicode="&#x2d9;" horiz-adv-x="350" 
d="M175 753q29 0 48 -19.5t19 -49.5q0 -29 -19 -48.5t-48 -19.5t-48 19.5t-19 48.5q0 30 19 49.5t48 19.5z" />
    <glyph glyph-name="ring" unicode="&#x2da;" horiz-adv-x="350" 
d="M175 801q49 0 83.5 -34.5t34.5 -81.5q0 -48 -34.5 -82t-83.5 -34t-83.5 34t-34.5 82q0 47 34.5 81.5t83.5 34.5zM175 749q-28 0 -48 -19t-20 -45t20 -45t48 -19t48 19t20 45t-20 45t-48 19z" />
    <glyph glyph-name="ogonek" unicode="&#x2db;" horiz-adv-x="350" 
d="M208 12q-58 -78 -58 -117q0 -15 8.5 -23.5t22.5 -8.5q24 0 49 32l33 -39q-36 -57 -95 -57q-32 0 -55.5 19.5t-23.5 58.5q0 54 60 135h59z" />
    <glyph glyph-name="tilde" unicode="&#x2dc;" horiz-adv-x="350" 
d="M336 752q0 -131 -91 -131q-33 0 -69.5 27.5t-50.5 27.5q-37 0 -37 -49h-74q0 131 92 131q30 0 67.5 -27.5t51.5 -27.5q38 0 38 49h73z" />
    <glyph glyph-name="hungarumlaut" unicode="&#x2dd;" horiz-adv-x="350" 
d="M85 763l98 -44l-92 -110h-89zM250 763l98 -44l-92 -110h-89z" />
    <glyph glyph-name="gravecomb" unicode="&#x300;" 
d="M-33 757l106 -148h-102l-122 98z" />
    <glyph glyph-name="acutecomb" unicode="&#x301;" 
d="M49 757l118 -50l-122 -98h-102z" />
    <glyph glyph-name="uni0302" unicode="&#x302;" 
d="M-53 755h106l103 -141h-94l-62 88l-62 -88h-94z" />
    <glyph glyph-name="tildecomb" unicode="&#x303;" 
d="M161 752q0 -131 -91 -131q-33 0 -69.5 27.5t-50.5 27.5q-37 0 -37 -49h-74q0 131 92 131q30 0 67.5 -27.5t51.5 -27.5q38 0 38 49h73z" />
    <glyph glyph-name="uni0304" unicode="&#x304;" 
d="M-128 705h255v-83h-255v83z" />
    <glyph glyph-name="uni0306" unicode="&#x306;" 
d="M-63 749q2 -29 19.5 -47t43.5 -18t43.5 18t19.5 47h78q-2 -63 -41.5 -102.5t-99.5 -39.5t-99.5 39.5t-41.5 102.5h78z" />
    <glyph glyph-name="uni0307" unicode="&#x307;" 
d="M0 753q29 0 48 -19.5t19 -49.5q0 -29 -19 -48.5t-48 -19.5t-48 19.5t-19 48.5q0 30 19 49.5t48 19.5z" />
    <glyph glyph-name="uni0308" unicode="&#x308;" 
d="M-89 747q26 0 43.5 -18t17.5 -45q0 -26 -18 -44.5t-43 -18.5q-26 0 -43.5 18.5t-17.5 44.5q0 28 17.5 45.5t43.5 17.5zM88 747q26 0 43.5 -18t17.5 -45q0 -26 -18 -44.5t-43 -18.5q-26 0 -43.5 18.5t-17.5 44.5q0 28 17.5 45.5t43.5 17.5z" />
    <glyph glyph-name="hookabovecomb" unicode="&#x309;" 
d="M-109 692q6 39 34.5 61t71.5 22q45 0 72.5 -26t27.5 -67q0 -53 -62 -104l-55 19q59 46 59 81q0 17 -11.5 28.5t-31.5 11.5q-44 0 -51 -44z" />
    <glyph glyph-name="uni030A" unicode="&#x30a;" 
d="M0 801q49 0 83.5 -34.5t34.5 -81.5q0 -48 -34.5 -82t-83.5 -34t-83.5 34t-34.5 82q0 47 34.5 81.5t83.5 34.5zM0 749q-28 0 -48 -19t-20 -45t20 -45t48 -19t48 19t20 45t-20 45t-48 19z" />
    <glyph glyph-name="uni030B" unicode="&#x30b;" 
d="M-90 763l98 -44l-92 -110h-89zM75 763l98 -44l-92 -110h-89z" />
    <glyph glyph-name="uni030C" unicode="&#x30c;" 
d="M-165 755h102l63 -93l63 93h102l-108 -150h-114z" />
    <glyph glyph-name="uni030F" unicode="&#x30f;" 
d="M-111 763l83 -154h-89l-92 110zM54 763l83 -154h-89l-92 110z" />
    <glyph glyph-name="uni0311" unicode="&#x311;" 
d="M-63 607h-78q2 64 41.5 103t99.5 39t99.5 -39t41.5 -103h-78q-1 29 -19 47.5t-44 18.5t-44 -18.5t-19 -47.5z" />
    <glyph glyph-name="uni0312" unicode="&#x312;" 
d="M36 693q27 -17 27 -50q0 -27 -17.5 -45t-45.5 -18q-25 0 -43 17t-18 45q0 26 18 52l58 85h59z" />
    <glyph glyph-name="uni031B" unicode="&#x31b;" 
d="M0 431v81q44 0 73.5 28t29.5 71h88q0 -77 -54.5 -128.5t-136.5 -51.5z" />
    <glyph glyph-name="dotbelowcomb" unicode="&#x323;" 
d="M0 -50q29 0 48 -19.5t19 -49.5q0 -29 -19 -48.5t-48 -19.5t-48 19.5t-19 48.5q0 30 19 49.5t48 19.5z" />
    <glyph glyph-name="uni0324" unicode="&#x324;" 
d="M-89 -50q26 0 43.5 -18t17.5 -45q0 -26 -18 -44.5t-43 -18.5q-26 0 -43.5 18.5t-17.5 44.5q0 28 17.5 45.5t43.5 17.5zM88 -50q26 0 43.5 -18t17.5 -45q0 -26 -18 -44.5t-43 -18.5q-26 0 -43.5 18.5t-17.5 44.5q0 28 17.5 45.5t43.5 17.5z" />
    <glyph glyph-name="uni0326" unicode="&#x326;" 
d="M0 -50q25 0 43 -17t18 -45q0 -26 -18 -52l-57 -85h-59l38 86q-27 17 -27 50q0 27 17.5 45t44.5 18z" />
    <glyph glyph-name="uni0327" unicode="&#x327;" 
d="M6 -61q32 -6 51 -26.5t19 -52.5q0 -43 -30.5 -69t-75.5 -26q-50 0 -88 28l22 54q26 -20 58 -20q21 0 33.5 12.5t12.5 28.5t-12.5 27t-35.5 11q-17 0 -35 -5l42 99h68z" />
    <glyph glyph-name="uni0328" unicode="&#x328;" 
d="M31 11q-58 -78 -58 -117q0 -15 8.5 -23.5t22.5 -8.5q24 0 49 32l33 -39q-36 -57 -95 -57q-32 0 -55.5 19.5t-23.5 58.5q0 54 60 135h59z" />
    <glyph glyph-name="uni032E" unicode="&#x32e;" 
d="M-63 -50q2 -29 19.5 -47t43.5 -18t43.5 18t19.5 47h78q-2 -63 -41.5 -102.5t-99.5 -39.5t-99.5 39.5t-41.5 102.5h78z" />
    <glyph glyph-name="uni0331" unicode="&#x331;" 
d="M-128 -63h255v-83h-255v83z" />
    <glyph glyph-name="uni0335" unicode="&#x335;" 
d="M-296 483h296v-83h-296v83z" />
    <glyph glyph-name="uni0394" unicode="&#x394;" horiz-adv-x="738" 
d="M431 700l306 -700h-736l309 700h121zM163 93h408l-204 481z" />
    <glyph glyph-name="uni03A9" unicode="&#x3a9;" horiz-adv-x="882" 
d="M541 107q76 42 115.5 109t39.5 140q0 101 -69 173t-186 72q-116 0 -185 -71.5t-69 -172.5q0 -73 39.5 -140t115.5 -110v-107h-333v100h210q-61 47 -99 122.5t-38 150.5q0 143 102 237.5t257 94.5t257.5 -94.5t102.5 -237.5q0 -75 -38.5 -151t-98.5 -122h209v-100h-332
v107z" />
    <glyph glyph-name="uni03BC" unicode="&#x3bc;" horiz-adv-x="675" 
d="M475 532h115v-532h-115v104q-52 -106 -190 -108q-41 0 -80 13v-203h-115v726h115v-299q0 -60 33 -94.5t91 -34.5q67 1 106.5 47.5t39.5 118.5v262z" />
    <glyph glyph-name="pi" unicode="&#x3c0;" horiz-adv-x="725" 
d="M715 532v-88h-147v-444h-96v444h-147l-50 -444h-96l49 444h-51q-42 0 -69.5 -23.5t-26.5 -60.5q0 -37 26 -76l-80 -31q-35 58 -37 127q-1 65 48.5 108.5t124.5 43.5h552z" />
    <glyph glyph-name="uni1E08" unicode="&#x1e08;" horiz-adv-x="697" 
d="M539 875l-122 -98h-102l106 148zM389 -61q32 -6 51 -26.5t19 -52.5q0 -43 -30.5 -69t-75.5 -26q-50 0 -88 28l22 54q26 -20 58 -20q21 0 33.5 12.5t12.5 28.5t-12.5 27t-35.5 11q-17 0 -35 -5l41 97q-136 17 -225.5 116t-89.5 237q0 149 106.5 250.5t261.5 101.5
q74 0 144.5 -28.5t121.5 -79.5l-69 -86q-38 41 -90 65t-105 24q-105 0 -177.5 -71.5t-72.5 -174.5q0 -104 72.5 -175.5t177.5 -71.5q109 0 195 83l70 -78q-109 -107 -253 -115z" />
    <glyph glyph-name="uni1E09" unicode="&#x1e09;" horiz-adv-x="564" 
d="M471 707l-122 -98h-102l106 148zM529 95q-70 -92 -207 -99l-27 -57q32 -6 51 -26.5t19 -52.5q0 -43 -30.5 -69t-75.5 -26q-50 0 -88 28l22 54q26 -20 58 -20q21 0 33.5 12.5t12.5 28.5t-12.5 27t-35.5 11q-17 0 -35 -5l42 98q-100 15 -160.5 87t-60.5 179q0 121 74.5 196
t193.5 75q144 0 220 -87l-63 -74q-60 61 -152 60q-69 0 -113.5 -47.5t-44.5 -122.5t44.5 -122.5t113.5 -47.5q102 0 157 64z" />
    <glyph glyph-name="uni1E0C" unicode="&#x1e0c;" horiz-adv-x="775" 
d="M379 700q157 0 259.5 -99t102.5 -251t-103 -251t-262 -99h-284v700h287zM382 106q103 0 171.5 68.5t68.5 174.5t-70.5 175.5t-174.5 69.5h-167v-488h172zM391 -50q29 0 48 -19.5t19 -49.5q0 -29 -19 -48.5t-48 -19.5t-48 19.5t-19 48.5q0 30 19 49.5t48 19.5z" />
    <glyph glyph-name="uni1E0D" unicode="&#x1e0d;" horiz-adv-x="682" 
d="M477 742h115v-742h-115v91q-59 -96 -187 -96q-114 0 -184.5 75.5t-70.5 197.5q0 120 70 194.5t183 74.5q128 0 189 -97v302zM314 91q72 0 117.5 48.5t45.5 124.5q0 77 -45.5 126t-117.5 49t-117.5 -49t-46.5 -126q1 -76 46.5 -124.5t117.5 -48.5zM357 -50q29 0 48 -19.5
t19 -49.5q0 -29 -19 -48.5t-48 -19.5t-48 19.5t-19 48.5q0 30 19 49.5t48 19.5z" />
    <glyph glyph-name="uni1E0E" unicode="&#x1e0e;" horiz-adv-x="775" 
d="M379 700q157 0 259.5 -99t102.5 -251t-103 -251t-262 -99h-284v700h287zM382 106q103 0 171.5 68.5t68.5 174.5t-70.5 175.5t-174.5 69.5h-167v-488h172zM263 -63h255v-83h-255v83z" />
    <glyph glyph-name="uni1E0F" unicode="&#x1e0f;" horiz-adv-x="682" 
d="M477 742h115v-742h-115v91q-59 -96 -187 -96q-114 0 -184.5 75.5t-70.5 197.5q0 120 70 194.5t183 74.5q128 0 189 -97v302zM314 91q72 0 117.5 48.5t45.5 124.5q0 77 -45.5 126t-117.5 49t-117.5 -49t-46.5 -126q1 -76 46.5 -124.5t117.5 -48.5zM229 -146v83h255v-83
h-255z" />
    <glyph glyph-name="uni1E14" unicode="&#x1e14;" horiz-adv-x="656" 
d="M302 1091l106 -148h-102l-122 98zM223 873h255v-83h-255v83zM92 700h500v-106h-382v-190h342v-105h-342v-193h394v-106h-512v700z" />
    <glyph glyph-name="uni1E15" unicode="&#x1e15;" horiz-adv-x="588" 
d="M356 775h-102l-122 98l118 50zM171 622v83h255v-83h-255zM304 536q137 0 198.5 -82.5t50.5 -231.5h-402q14 -62 58 -97.5t107 -35.5q90 0 150 62l61 -65q-82 -90 -220 -90q-123 0 -197.5 74.5t-74.5 194.5t75 195t194 76zM149 306h304q-3 64 -43 101t-105 37
q-63 0 -105 -37t-51 -101z" />
    <glyph glyph-name="uni1E16" unicode="&#x1e16;" horiz-adv-x="656" 
d="M400 1091l118 -50l-122 -98h-102zM223 873h255v-83h-255v83zM92 700h500v-106h-382v-190h342v-105h-342v-193h394v-106h-512v700z" />
    <glyph glyph-name="uni1E17" unicode="&#x1e17;" horiz-adv-x="588" 
d="M466 873l-122 -98h-102l106 148zM426 705v-83h-255v83h255zM304 536q137 0 198.5 -82.5t50.5 -231.5h-402q14 -62 58 -97.5t107 -35.5q90 0 150 62l61 -65q-82 -90 -220 -90q-123 0 -197.5 74.5t-74.5 194.5t75 195t194 76zM149 306h304q-3 64 -43 101t-105 37
q-63 0 -105 -37t-51 -101z" />
    <glyph glyph-name="uni1E1C" unicode="&#x1e1c;" horiz-adv-x="656" 
d="M351 775q-60 0 -99.5 39.5t-41.5 102.5h78q2 -29 19.5 -47t43.5 -18t43.5 18t19.5 47h78q-2 -63 -41.5 -102.5t-99.5 -39.5zM604 0h-221l-29 -61q32 -6 51 -26.5t19 -52.5q0 -43 -30.5 -69t-75.5 -26q-50 0 -88 28l22 54q26 -20 58 -20q21 0 33.5 12.5t12.5 28.5
t-12.5 27t-35.5 11q-17 0 -35 -5l42 99h-223v700h500v-106h-382v-190h342v-105h-342v-193h394v-106z" />
    <glyph glyph-name="uni1E1D" unicode="&#x1e1d;" horiz-adv-x="588" 
d="M299 607q-60 0 -99.5 39.5t-41.5 102.5h78q2 -29 19.5 -47t43.5 -18t43.5 18t19.5 47h78q-2 -63 -41.5 -102.5t-99.5 -39.5zM304 536q137 0 198.5 -82.5t50.5 -231.5h-402q14 -62 58 -97.5t107 -35.5q90 0 150 62l61 -65q-74 -80 -192 -89l-28 -58q32 -6 51 -26.5
t19 -52.5q0 -43 -30.5 -69t-75.5 -26q-50 0 -88 28l22 54q26 -20 58 -20q21 0 33.5 12.5t12.5 28.5t-12.5 27t-35.5 11q-17 0 -35 -5l41 97q-106 12 -169 84.5t-63 182.5q0 120 75 195t194 76zM149 306h304q-3 64 -43 101t-105 37q-63 0 -105 -37t-51 -101z" />
    <glyph glyph-name="uni1E20" unicode="&#x1e20;" horiz-adv-x="749" 
d="M514 873v-83h-255v83h255zM571 149v195h103v-258q-54 -41 -127.5 -66t-144.5 -25q-155 0 -261.5 102.5t-106.5 252.5t108 251.5t267 101.5q74 0 145.5 -26.5t123.5 -71.5l-67 -87q-86 80 -202 80q-107 0 -181 -72t-74 -176q0 -105 74.5 -177t181.5 -72q81 0 161 48z" />
    <glyph glyph-name="uni1E21" unicode="&#x1e21;" horiz-adv-x="640" 
d="M447 705v-83h-255v83h255zM451 532h114v-480q0 -114 -75 -181.5t-201 -67.5q-118 0 -221 70l49 83q78 -58 167 -58q76 0 121.5 41t45.5 110v67q-56 -90 -176 -90q-108 0 -174 71t-66 186q0 113 65 182.5t171 70.5q122 1 180 -90v86zM298 116q67 0 110 46t43 118
t-42.5 117.5t-110.5 45.5t-111 -45.5t-44 -117.5q1 -72 43.5 -118t111.5 -46z" />
    <glyph glyph-name="uni1E24" unicode="&#x1e24;" horiz-adv-x="791" 
d="M92 700h118v-304h371v304h118v-700h-118v290h-371v-290h-118v700zM395 -50q29 0 48 -19.5t19 -49.5q0 -29 -19 -48.5t-48 -19.5t-48 19.5t-19 48.5q0 30 19 49.5t48 19.5z" />
    <glyph glyph-name="uni1E25" unicode="&#x1e25;" horiz-adv-x="669" 
d="M402 536q93 0 145.5 -54.5t52.5 -150.5v-331h-115v299q0 60 -34 94.5t-94 34.5q-70 -1 -111 -47.5t-41 -118.5v-262h-115v742h115v-314q55 108 197 108zM345 -50q29 0 48 -19.5t19 -49.5q0 -29 -19 -48.5t-48 -19.5t-48 19.5t-19 48.5q0 30 19 49.5t48 19.5z" />
    <glyph glyph-name="uni1E2A" unicode="&#x1e2a;" horiz-adv-x="791" 
d="M92 700h118v-304h371v304h118v-700h-118v290h-371v-290h-118v700zM332 -50q2 -29 19.5 -47t43.5 -18t43.5 18t19.5 47h78q-2 -63 -41.5 -102.5t-99.5 -39.5t-99.5 39.5t-41.5 102.5h78z" />
    <glyph glyph-name="uni1E2B" unicode="&#x1e2b;" horiz-adv-x="669" 
d="M402 536q93 0 145.5 -54.5t52.5 -150.5v-331h-115v299q0 60 -34 94.5t-94 34.5q-70 -1 -111 -47.5t-41 -118.5v-262h-115v742h115v-314q55 108 197 108zM345 -115q26 0 43.5 18t19.5 47h78q-2 -63 -41.5 -102.5t-99.5 -39.5t-99.5 39.5t-41.5 102.5h78q2 -29 19.5 -47
t43.5 -18z" />
    <glyph glyph-name="uni1E2E" unicode="&#x1e2e;" horiz-adv-x="302" 
d="M200 1119l118 -50l-122 -98h-102zM62 915q26 0 43.5 -18t17.5 -45q0 -26 -18 -44.5t-43 -18.5q-26 0 -43.5 18.5t-17.5 44.5q0 28 17.5 45.5t43.5 17.5zM239 915q26 0 43.5 -18t17.5 -45q0 -26 -18 -44.5t-43 -18.5q-26 0 -43.5 18.5t-17.5 44.5q0 28 17.5 45.5
t43.5 17.5zM92 700h118v-700h-118v700z" />
    <glyph glyph-name="uni1E2F" unicode="&#x1e2f;" horiz-adv-x="284" 
d="M191 951l118 -50l-122 -98h-102zM53 747q26 0 43.5 -18t17.5 -45q0 -26 -18 -44.5t-43 -18.5q-26 0 -43.5 18.5t-17.5 44.5q0 28 17.5 45.5t43.5 17.5zM230 747q26 0 43.5 -18t17.5 -45q0 -26 -18 -44.5t-43 -18.5q-26 0 -43.5 18.5t-17.5 44.5q0 28 17.5 45.5t43.5 17.5
zM85 532h114v-532h-114v532z" />
    <glyph glyph-name="uni1E36" unicode="&#x1e36;" horiz-adv-x="534" 
d="M92 700h118v-593h303v-107h-421v700zM303 -50q29 0 48 -19.5t19 -49.5q0 -29 -19 -48.5t-48 -19.5t-48 19.5t-19 48.5q0 30 19 49.5t48 19.5z" />
    <glyph glyph-name="uni1E37" unicode="&#x1e37;" horiz-adv-x="295" 
d="M90 742h115v-742h-115v742zM148 -50q29 0 48 -19.5t19 -49.5q0 -29 -19 -48.5t-48 -19.5t-48 19.5t-19 48.5q0 30 19 49.5t48 19.5z" />
    <glyph glyph-name="uni1E3A" unicode="&#x1e3a;" horiz-adv-x="534" 
d="M92 700h118v-593h303v-107h-421v700zM175 -63h255v-83h-255v83z" />
    <glyph glyph-name="uni1E3B" unicode="&#x1e3b;" horiz-adv-x="295" 
d="M90 742h115v-742h-115v742zM20 -63h255v-83h-255v83z" />
    <glyph glyph-name="uni1E42" unicode="&#x1e42;" horiz-adv-x="925" 
d="M92 700h140l231 -465l230 465h139v-700h-109l-1 523l-221 -450h-77l-221 450v-523h-111v700zM463 -50q29 0 48 -19.5t19 -49.5q0 -29 -19 -48.5t-48 -19.5t-48 19.5t-19 48.5q0 30 19 49.5t48 19.5z" />
    <glyph glyph-name="uni1E43" unicode="&#x1e43;" horiz-adv-x="1043" 
d="M779 536q91 0 143 -55t52 -150v-331h-115v299q0 61 -33.5 95.5t-92.5 34.5q-67 -2 -106.5 -48.5t-39.5 -117.5v-263h-115v299q0 61 -33.5 95.5t-91.5 34.5q-68 -2 -108 -48.5t-40 -117.5v-263h-114v532h114v-103q53 107 193 107q71 0 118.5 -33.5t66.5 -94.5
q49 128 202 128zM530 -50q29 0 48 -19.5t19 -49.5q0 -29 -19 -48.5t-48 -19.5t-48 19.5t-19 48.5q0 30 19 49.5t48 19.5z" />
    <glyph glyph-name="uni1E44" unicode="&#x1e44;" horiz-adv-x="792" 
d="M406 921q29 0 48 -19.5t19 -49.5q0 -29 -19 -48.5t-48 -19.5t-48 19.5t-19 48.5q0 30 19 49.5t48 19.5zM92 700h116l375 -503v503h116v-700h-116l-373 502v-502h-118v700z" />
    <glyph glyph-name="uni1E45" unicode="&#x1e45;" horiz-adv-x="663" 
d="M346 616q-29 0 -48 19.5t-19 48.5q0 30 19 49.5t48 19.5t48 -19.5t19 -49.5q0 -29 -19 -48.5t-48 -19.5zM396 536q93 0 145.5 -54.5t52.5 -150.5v-331h-115v299q0 60 -34 94.5t-94 34.5q-64 -1 -104.5 -41t-46.5 -104v-283h-115v532h115v-102q54 106 196 106z" />
    <glyph glyph-name="uni1E46" unicode="&#x1e46;" horiz-adv-x="792" 
d="M92 700h116l375 -503v503h116v-700h-116l-373 502v-502h-118v700zM396 -50q29 0 48 -19.5t19 -49.5q0 -29 -19 -48.5t-48 -19.5t-48 19.5t-19 48.5q0 30 19 49.5t48 19.5z" />
    <glyph glyph-name="uni1E47" unicode="&#x1e47;" horiz-adv-x="663" 
d="M396 536q93 0 145.5 -54.5t52.5 -150.5v-331h-115v299q0 60 -34 94.5t-94 34.5q-64 -1 -104.5 -41t-46.5 -104v-283h-115v532h115v-102q54 106 196 106zM336 -50q29 0 48 -19.5t19 -49.5q0 -29 -19 -48.5t-48 -19.5t-48 19.5t-19 48.5q0 30 19 49.5t48 19.5z" />
    <glyph glyph-name="uni1E48" unicode="&#x1e48;" horiz-adv-x="792" 
d="M92 700h116l375 -503v503h116v-700h-116l-373 502v-502h-118v700zM268 -63h255v-83h-255v83z" />
    <glyph glyph-name="uni1E49" unicode="&#x1e49;" horiz-adv-x="663" 
d="M396 536q93 0 145.5 -54.5t52.5 -150.5v-331h-115v299q0 60 -34 94.5t-94 34.5q-64 -1 -104.5 -41t-46.5 -104v-283h-115v532h115v-102q54 106 196 106zM208 -146v83h255v-83h-255z" />
    <glyph glyph-name="uni1E4C" unicode="&#x1e4c;" horiz-adv-x="810" 
d="M449 1120l118 -50l-122 -98h-102zM561 920q0 -131 -91 -131q-33 0 -69.5 27.5t-50.5 27.5q-37 0 -37 -49h-74q0 131 92 131q30 0 67.5 -27.5t51.5 -27.5q38 0 38 49h73zM405 703q157 0 264 -101.5t107 -251.5t-107 -252.5t-264 -102.5t-264 102.5t-107 252.5t107 251.5
t264 101.5zM406 597q-104 0 -178 -71.5t-74 -175.5t74.5 -176.5t177.5 -72.5t176 72.5t73 176.5t-73 175.5t-176 71.5z" />
    <glyph glyph-name="uni1E4D" unicode="&#x1e4d;" horiz-adv-x="625" 
d="M362 952l118 -50l-122 -98h-102zM474 752q0 -131 -91 -131q-33 0 -69.5 27.5t-50.5 27.5q-37 0 -37 -49h-74q0 131 92 131q30 0 67.5 -27.5t51.5 -27.5q38 0 38 49h73zM313 536q123 0 200 -74.5t77 -194.5q0 -121 -77 -196t-200 -75q-124 0 -201 75t-77 196
q0 120 77 194.5t201 74.5zM313 438q-72 0 -117.5 -48.5t-45.5 -124.5q0 -77 45.5 -125t117.5 -48t117 48t45 125q0 76 -45.5 124.5t-116.5 48.5z" />
    <glyph glyph-name="uni1E4E" unicode="&#x1e4e;" horiz-adv-x="810" 
d="M311 1110q26 0 43.5 -18t17.5 -45q0 -26 -18 -44.5t-43 -18.5q-26 0 -43.5 18.5t-17.5 44.5q0 28 17.5 45.5t43.5 17.5zM488 1110q26 0 43.5 -18t17.5 -45q0 -26 -18 -44.5t-43 -18.5q-26 0 -43.5 18.5t-17.5 44.5q0 28 17.5 45.5t43.5 17.5zM561 920q0 -131 -91 -131
q-33 0 -69.5 27.5t-50.5 27.5q-37 0 -37 -49h-74q0 131 92 131q30 0 67.5 -27.5t51.5 -27.5q38 0 38 49h73zM405 703q157 0 264 -101.5t107 -251.5t-107 -252.5t-264 -102.5t-264 102.5t-107 252.5t107 251.5t264 101.5zM406 597q-104 0 -178 -71.5t-74 -175.5t74.5 -176.5
t177.5 -72.5t176 72.5t73 176.5t-73 175.5t-176 71.5z" />
    <glyph glyph-name="uni1E4F" unicode="&#x1e4f;" horiz-adv-x="625" 
d="M224 942q26 0 43.5 -18t17.5 -45q0 -26 -18 -44.5t-43 -18.5q-26 0 -43.5 18.5t-17.5 44.5q0 28 17.5 45.5t43.5 17.5zM401 942q26 0 43.5 -18t17.5 -45q0 -26 -18 -44.5t-43 -18.5q-26 0 -43.5 18.5t-17.5 44.5q0 28 17.5 45.5t43.5 17.5zM474 752q0 -131 -91 -131
q-33 0 -69.5 27.5t-50.5 27.5q-37 0 -37 -49h-74q0 131 92 131q30 0 67.5 -27.5t51.5 -27.5q38 0 38 49h73zM313 536q123 0 200 -74.5t77 -194.5q0 -121 -77 -196t-200 -75q-124 0 -201 75t-77 196q0 120 77 194.5t201 74.5zM313 438q-72 0 -117.5 -48.5t-45.5 -124.5
q0 -77 45.5 -125t117.5 -48t117 48t45 125q0 76 -45.5 124.5t-116.5 48.5z" />
    <glyph glyph-name="uni1E50" unicode="&#x1e50;" horiz-adv-x="810" 
d="M351 1091l106 -148h-102l-122 98zM272 873h255v-83h-255v83zM405 703q157 0 264 -101.5t107 -251.5t-107 -252.5t-264 -102.5t-264 102.5t-107 252.5t107 251.5t264 101.5zM406 597q-104 0 -178 -71.5t-74 -175.5t74.5 -176.5t177.5 -72.5t176 72.5t73 176.5t-73 175.5
t-176 71.5z" />
    <glyph glyph-name="uni1E51" unicode="&#x1e51;" horiz-adv-x="625" 
d="M264 923l106 -148h-102l-122 98zM185 705h255v-83h-255v83zM313 536q123 0 200 -74.5t77 -194.5q0 -121 -77 -196t-200 -75q-124 0 -201 75t-77 196q0 120 77 194.5t201 74.5zM313 438q-72 0 -117.5 -48.5t-45.5 -124.5q0 -77 45.5 -125t117.5 -48t117 48t45 125
q0 76 -45.5 124.5t-116.5 48.5z" />
    <glyph glyph-name="uni1E52" unicode="&#x1e52;" horiz-adv-x="810" 
d="M449 1091l118 -50l-122 -98h-102zM272 873h255v-83h-255v83zM405 703q157 0 264 -101.5t107 -251.5t-107 -252.5t-264 -102.5t-264 102.5t-107 252.5t107 251.5t264 101.5zM406 597q-104 0 -178 -71.5t-74 -175.5t74.5 -176.5t177.5 -72.5t176 72.5t73 176.5t-73 175.5
t-176 71.5z" />
    <glyph glyph-name="uni1E53" unicode="&#x1e53;" horiz-adv-x="625" 
d="M362 923l118 -50l-122 -98h-102zM185 705h255v-83h-255v83zM313 536q123 0 200 -74.5t77 -194.5q0 -121 -77 -196t-200 -75q-124 0 -201 75t-77 196q0 120 77 194.5t201 74.5zM313 438q-72 0 -117.5 -48.5t-45.5 -124.5q0 -77 45.5 -125t117.5 -48t117 48t45 125
q0 76 -45.5 124.5t-116.5 48.5z" />
    <glyph glyph-name="uni1E5A" unicode="&#x1e5a;" horiz-adv-x="723" 
d="M513 234l157 -234h-134l-128 212q-10 -1 -32 -1h-166v-211h-118v700h284q134 0 208 -62.5t74 -176.5q0 -84 -37.5 -142t-107.5 -85zM210 317h166q170 0 170 141q0 136 -170 136h-166v-277zM360 -50q29 0 48 -19.5t19 -49.5q0 -29 -19 -48.5t-48 -19.5t-48 19.5t-19 48.5
q0 30 19 49.5t48 19.5z" />
    <glyph glyph-name="uni1E5B" unicode="&#x1e5b;" horiz-adv-x="394" 
d="M200 426q55 110 184 110v-110q-79 4 -128 -37t-56 -111v-278h-115v532h115v-106zM140 -50q29 0 48 -19.5t19 -49.5q0 -29 -19 -48.5t-48 -19.5t-48 19.5t-19 48.5q0 30 19 49.5t48 19.5z" />
    <glyph glyph-name="uni1E5E" unicode="&#x1e5e;" horiz-adv-x="723" 
d="M513 234l157 -234h-134l-128 212q-10 -1 -32 -1h-166v-211h-118v700h284q134 0 208 -62.5t74 -176.5q0 -84 -37.5 -142t-107.5 -85zM210 317h166q170 0 170 141q0 136 -170 136h-166v-277zM232 -146v83h255v-83h-255z" />
    <glyph glyph-name="uni1E5F" unicode="&#x1e5f;" horiz-adv-x="394" 
d="M200 426q55 110 184 110v-110q-79 4 -128 -37t-56 -111v-278h-115v532h115v-106zM12 -146v83h255v-83h-255z" />
    <glyph glyph-name="uni1E60" unicode="&#x1e60;" horiz-adv-x="622" 
d="M319 921q29 0 48 -19.5t19 -49.5q0 -29 -19 -48.5t-48 -19.5t-48 19.5t-19 48.5q0 30 19 49.5t48 19.5zM518 529q-107 65 -205 65q-53 0 -83.5 -19t-30.5 -54t28 -59.5t70 -36t91 -29t91 -37t69.5 -61t27.5 -100.5q0 -92 -73.5 -147t-190.5 -55q-80 0 -155 30t-131 81
l51 102q53 -49 116.5 -75.5t120.5 -26.5q62 0 96.5 22.5t34.5 62.5q0 36 -28 60.5t-70 36t-91 28t-91 35t-70 59.5t-28 99q0 89 70 142t185 53q136 0 245 -72z" />
    <glyph glyph-name="uni1E61" unicode="&#x1e61;" horiz-adv-x="470" 
d="M241 753q29 0 48 -19.5t19 -49.5q0 -29 -19 -48.5t-48 -19.5t-48 19.5t-19 48.5q0 30 19 49.5t48 19.5zM388 398q-76 47 -153 47q-78 0 -78 -53q0 -26 29 -43t70.5 -28.5t83 -27t70.5 -50.5t29 -89q0 -77 -58.5 -117.5t-145.5 -40.5q-60 0 -117.5 19.5t-96.5 54.5l41 82
q34 -30 83.5 -48t94.5 -18q39 0 63 14t24 43q0 30 -29 48t-70 29t-82 26t-69.5 49.5t-28.5 87.5q0 76 56.5 115t139.5 39q110 0 186 -54z" />
    <glyph glyph-name="uni1E62" unicode="&#x1e62;" horiz-adv-x="622" 
d="M518 529q-107 65 -205 65q-53 0 -83.5 -19t-30.5 -54t28 -59.5t70 -36t91 -29t91 -37t69.5 -61t27.5 -100.5q0 -92 -73.5 -147t-190.5 -55q-80 0 -155 30t-131 81l51 102q53 -49 116.5 -75.5t120.5 -26.5q62 0 96.5 22.5t34.5 62.5q0 36 -28 60.5t-70 36t-91 28t-91 35
t-70 59.5t-28 99q0 89 70 142t185 53q136 0 245 -72zM316 -50q29 0 48 -19.5t19 -49.5q0 -29 -19 -48.5t-48 -19.5t-48 19.5t-19 48.5q0 30 19 49.5t48 19.5z" />
    <glyph glyph-name="uni1E63" unicode="&#x1e63;" horiz-adv-x="470" 
d="M388 398q-76 47 -153 47q-78 0 -78 -53q0 -26 29 -43t70.5 -28.5t83 -27t70.5 -50.5t29 -89q0 -77 -58.5 -117.5t-145.5 -40.5q-60 0 -117.5 19.5t-96.5 54.5l41 82q34 -30 83.5 -48t94.5 -18q39 0 63 14t24 43q0 30 -29 48t-70 29t-82 26t-69.5 49.5t-28.5 87.5
q0 76 56.5 115t139.5 39q110 0 186 -54zM234 -50q29 0 48 -19.5t19 -49.5q0 -29 -19 -48.5t-48 -19.5t-48 19.5t-19 48.5q0 30 19 49.5t48 19.5z" />
    <glyph glyph-name="uni1E64" unicode="&#x1e64;" horiz-adv-x="622" 
d="M319 1105q29 0 48 -19.5t19 -49.5q0 -29 -19 -48.5t-48 -19.5t-48 19.5t-19 48.5q0 30 19 49.5t48 19.5zM368 925l118 -50l-122 -98h-102zM518 529q-107 65 -205 65q-53 0 -83.5 -19t-30.5 -54t28 -59.5t70 -36t91 -29t91 -37t69.5 -61t27.5 -100.5q0 -92 -73.5 -147
t-190.5 -55q-80 0 -155 30t-131 81l51 102q53 -49 116.5 -75.5t120.5 -26.5q62 0 96.5 22.5t34.5 62.5q0 36 -28 60.5t-70 36t-91 28t-91 35t-70 59.5t-28 99q0 89 70 142t185 53q136 0 245 -72z" />
    <glyph glyph-name="uni1E65" unicode="&#x1e65;" horiz-adv-x="470" 
d="M241 937q29 0 48 -19.5t19 -49.5q0 -29 -19 -48.5t-48 -19.5t-48 19.5t-19 48.5q0 30 19 49.5t48 19.5zM290 757l118 -50l-122 -98h-102zM388 398q-76 47 -153 47q-78 0 -78 -53q0 -26 29 -43t70.5 -28.5t83 -27t70.5 -50.5t29 -89q0 -77 -58.5 -117.5t-145.5 -40.5
q-60 0 -117.5 19.5t-96.5 54.5l41 82q34 -30 83.5 -48t94.5 -18q39 0 63 14t24 43q0 30 -29 48t-70 29t-82 26t-69.5 49.5t-28.5 87.5q0 76 56.5 115t139.5 39q110 0 186 -54z" />
    <glyph glyph-name="uni1E66" unicode="&#x1e66;" horiz-adv-x="622" 
d="M319 1105q29 0 48 -19.5t19 -49.5q0 -29 -19 -48.5t-48 -19.5t-48 19.5t-19 48.5q0 30 19 49.5t48 19.5zM154 923h102l63 -93l63 93h102l-108 -150h-114zM518 529q-107 65 -205 65q-53 0 -83.5 -19t-30.5 -54t28 -59.5t70 -36t91 -29t91 -37t69.5 -61t27.5 -100.5
q0 -92 -73.5 -147t-190.5 -55q-80 0 -155 30t-131 81l51 102q53 -49 116.5 -75.5t120.5 -26.5q62 0 96.5 22.5t34.5 62.5q0 36 -28 60.5t-70 36t-91 28t-91 35t-70 59.5t-28 99q0 89 70 142t185 53q136 0 245 -72z" />
    <glyph glyph-name="uni1E67" unicode="&#x1e67;" horiz-adv-x="470" 
d="M241 937q29 0 48 -19.5t19 -49.5q0 -29 -19 -48.5t-48 -19.5t-48 19.5t-19 48.5q0 30 19 49.5t48 19.5zM76 755h102l63 -93l63 93h102l-108 -150h-114zM388 398q-76 47 -153 47q-78 0 -78 -53q0 -26 29 -43t70.5 -28.5t83 -27t70.5 -50.5t29 -89q0 -77 -58.5 -117.5
t-145.5 -40.5q-60 0 -117.5 19.5t-96.5 54.5l41 82q34 -30 83.5 -48t94.5 -18q39 0 63 14t24 43q0 30 -29 48t-70 29t-82 26t-69.5 49.5t-28.5 87.5q0 76 56.5 115t139.5 39q110 0 186 -54z" />
    <glyph glyph-name="uni1E68" unicode="&#x1e68;" horiz-adv-x="622" 
d="M319 921q29 0 48 -19.5t19 -49.5q0 -29 -19 -48.5t-48 -19.5t-48 19.5t-19 48.5q0 30 19 49.5t48 19.5zM518 529q-107 65 -205 65q-53 0 -83.5 -19t-30.5 -54t28 -59.5t70 -36t91 -29t91 -37t69.5 -61t27.5 -100.5q0 -92 -73.5 -147t-190.5 -55q-80 0 -155 30t-131 81
l51 102q53 -49 116.5 -75.5t120.5 -26.5q62 0 96.5 22.5t34.5 62.5q0 36 -28 60.5t-70 36t-91 28t-91 35t-70 59.5t-28 99q0 89 70 142t185 53q136 0 245 -72zM316 -50q29 0 48 -19.5t19 -49.5q0 -29 -19 -48.5t-48 -19.5t-48 19.5t-19 48.5q0 30 19 49.5t48 19.5z" />
    <glyph glyph-name="uni1E69" unicode="&#x1e69;" horiz-adv-x="470" 
d="M241 753q29 0 48 -19.5t19 -49.5q0 -29 -19 -48.5t-48 -19.5t-48 19.5t-19 48.5q0 30 19 49.5t48 19.5zM388 398q-76 47 -153 47q-78 0 -78 -53q0 -26 29 -43t70.5 -28.5t83 -27t70.5 -50.5t29 -89q0 -77 -58.5 -117.5t-145.5 -40.5q-60 0 -117.5 19.5t-96.5 54.5l41 82
q34 -30 83.5 -48t94.5 -18q39 0 63 14t24 43q0 30 -29 48t-70 29t-82 26t-69.5 49.5t-28.5 87.5q0 76 56.5 115t139.5 39q110 0 186 -54zM234 -50q29 0 48 -19.5t19 -49.5q0 -29 -19 -48.5t-48 -19.5t-48 19.5t-19 48.5q0 30 19 49.5t48 19.5z" />
    <glyph glyph-name="uni1E6C" unicode="&#x1e6c;" horiz-adv-x="579" 
d="M9 700h561v-106h-222v-594h-118v594h-221v106zM289 -50q29 0 48 -19.5t19 -49.5q0 -29 -19 -48.5t-48 -19.5t-48 19.5t-19 48.5q0 30 19 49.5t48 19.5z" />
    <glyph glyph-name="uni1E6D" unicode="&#x1e6d;" horiz-adv-x="407" 
d="M386 34q-66 -39 -131 -39t-107 39t-42 116v276h-75v86h75v146h114v-146h157v-86h-157v-255q0 -40 14 -56t43 -16q32 0 80 23zM245 -50q29 0 48 -19.5t19 -49.5q0 -29 -19 -48.5t-48 -19.5t-48 19.5t-19 48.5q0 30 19 49.5t48 19.5z" />
    <glyph glyph-name="uni1E6E" unicode="&#x1e6e;" horiz-adv-x="579" 
d="M9 700h561v-106h-222v-594h-118v594h-221v106zM161 -63h255v-83h-255v83z" />
    <glyph glyph-name="uni1E6F" unicode="&#x1e6f;" horiz-adv-x="407" 
d="M255 -5q-65 0 -107 39t-42 116v276h-75v86h75v146h114v-146h157v-86h-157v-255q0 -40 14 -56t43 -16q32 0 80 23l29 -88q-66 -39 -131 -39zM117 -146v83h255v-83h-255z" />
    <glyph glyph-name="uni1E78" unicode="&#x1e78;" horiz-adv-x="764" 
d="M431 1120l118 -50l-122 -98h-102zM543 920q0 -131 -91 -131q-33 0 -69.5 27.5t-50.5 27.5q-37 0 -37 -49h-74q0 131 92 131q30 0 67.5 -27.5t51.5 -27.5q38 0 38 49h73zM196 290q0 -88 50.5 -138.5t137.5 -50.5q86 0 135.5 50t49.5 139v410h118v-410q0 -137 -81 -216
t-223 -79t-223.5 79t-81.5 216v410h118v-410z" />
    <glyph glyph-name="uni1E79" unicode="&#x1e79;" horiz-adv-x="653" 
d="M485 902l-122 -98h-102l106 148zM268 676q-37 0 -37 -49h-74q0 131 92 131q30 0 67.5 -27.5t51.5 -27.5q38 0 38 49h73q0 -131 -91 -131q-33 0 -69.5 27.5t-50.5 27.5zM453 532h115v-532h-115v104q-52 -106 -190 -108q-91 0 -143 55t-52 150v331h115v-299q0 -60 33 -94.5
t91 -34.5q67 1 106.5 47.5t39.5 118.5v262z" />
    <glyph glyph-name="uni1E7A" unicode="&#x1e7a;" horiz-adv-x="764" 
d="M293 1081q26 0 43.5 -18t17.5 -45q0 -26 -18 -44.5t-43 -18.5q-26 0 -43.5 18.5t-17.5 44.5q0 28 17.5 45.5t43.5 17.5zM470 1081q26 0 43.5 -18t17.5 -45q0 -26 -18 -44.5t-43 -18.5q-26 0 -43.5 18.5t-17.5 44.5q0 28 17.5 45.5t43.5 17.5zM254 873h255v-83h-255v83z
M196 290q0 -88 50.5 -138.5t137.5 -50.5q86 0 135.5 50t49.5 139v410h118v-410q0 -137 -81 -216t-223 -79t-223.5 79t-81.5 216v410h118v-410z" />
    <glyph glyph-name="uni1E7B" unicode="&#x1e7b;" horiz-adv-x="653" 
d="M229 787q-26 0 -43.5 18.5t-17.5 44.5q0 28 17.5 45.5t43.5 17.5t43.5 -18t17.5 -45q0 -26 -18 -44.5t-43 -18.5zM406 787q-26 0 -43.5 18.5t-17.5 44.5q0 28 17.5 45.5t43.5 17.5t43.5 -18t17.5 -45q0 -26 -18 -44.5t-43 -18.5zM190 622v83h255v-83h-255zM453 532h115
v-532h-115v104q-52 -106 -190 -108q-91 0 -143 55t-52 150v331h115v-299q0 -60 33 -94.5t91 -34.5q67 1 106.5 47.5t39.5 118.5v262z" />
    <glyph glyph-name="Wgrave" unicode="&#x1e80;" horiz-adv-x="1036" 
d="M474 925l106 -148h-102l-122 98zM3 700h127l170 -569l169 569h116l170 -569l169 569h122l-234 -700h-121l-166 546l-168 -546h-122z" />
    <glyph glyph-name="wgrave" unicode="&#x1e81;" horiz-adv-x="893" 
d="M407 757l106 -148h-102l-122 98zM1 532h118l138 -418l134 418h119l135 -418l136 418h117l-194 -532h-119l-135 394l-135 -394h-118z" />
    <glyph glyph-name="Wacute" unicode="&#x1e82;" horiz-adv-x="1036" 
d="M557 925l118 -50l-122 -98h-102zM3 700h127l170 -569l169 569h116l170 -569l169 569h122l-234 -700h-121l-166 546l-168 -546h-122z" />
    <glyph glyph-name="wacute" unicode="&#x1e83;" horiz-adv-x="893" 
d="M490 757l118 -50l-122 -98h-102zM1 532h118l138 -418l134 418h119l135 -418l136 418h117l-194 -532h-119l-135 394l-135 -394h-118z" />
    <glyph glyph-name="Wdieresis" unicode="&#x1e84;" horiz-adv-x="1036" 
d="M430 915q26 0 43.5 -18t17.5 -45q0 -26 -18 -44.5t-43 -18.5q-26 0 -43.5 18.5t-17.5 44.5q0 28 17.5 45.5t43.5 17.5zM607 915q26 0 43.5 -18t17.5 -45q0 -26 -18 -44.5t-43 -18.5q-26 0 -43.5 18.5t-17.5 44.5q0 28 17.5 45.5t43.5 17.5zM3 700h127l170 -569l169 569
h116l170 -569l169 569h122l-234 -700h-121l-166 546l-168 -546h-122z" />
    <glyph glyph-name="wdieresis" unicode="&#x1e85;" horiz-adv-x="893" 
d="M363 747q26 0 43.5 -18t17.5 -45q0 -26 -18 -44.5t-43 -18.5q-26 0 -43.5 18.5t-17.5 44.5q0 28 17.5 45.5t43.5 17.5zM540 747q26 0 43.5 -18t17.5 -45q0 -26 -18 -44.5t-43 -18.5q-26 0 -43.5 18.5t-17.5 44.5q0 28 17.5 45.5t43.5 17.5zM1 532h118l138 -418l134 418
h119l135 -418l136 418h117l-194 -532h-119l-135 394l-135 -394h-118z" />
    <glyph glyph-name="uni1E8E" unicode="&#x1e8e;" horiz-adv-x="637" 
d="M318 784q-29 0 -48 19.5t-19 48.5q0 30 19 49.5t48 19.5t48 -19.5t19 -49.5q0 -29 -19 -48.5t-48 -19.5zM636 700l-257 -467v-233h-117v229l-261 471h119l200 -341l196 341h120z" />
    <glyph glyph-name="uni1E8F" unicode="&#x1e8f;" horiz-adv-x="531" 
d="M268 753q29 0 48 -19.5t19 -49.5q0 -29 -19 -48.5t-48 -19.5t-48 19.5t-19 48.5q0 30 19 49.5t48 19.5zM294 -73q-50 -126 -173 -126q-69 0 -123 45l49 89q36 -26 69 -26q54 0 81 59l18 40l-220 524h119l159 -403l148 403h115z" />
    <glyph glyph-name="uni1E92" unicode="&#x1e92;" horiz-adv-x="666" 
d="M50 700h573v-85l-426 -509h431v-106h-591v85l427 509h-414v106zM333 -50q29 0 48 -19.5t19 -49.5q0 -29 -19 -48.5t-48 -19.5t-48 19.5t-19 48.5q0 30 19 49.5t48 19.5z" />
    <glyph glyph-name="uni1E93" unicode="&#x1e93;" horiz-adv-x="537" 
d="M54 532l437 -1v-77l-304 -360l313 -1v-94l-455 1v78l304 360h-295v94zM272 -50q29 0 48 -19.5t19 -49.5q0 -29 -19 -48.5t-48 -19.5t-48 19.5t-19 48.5q0 30 19 49.5t48 19.5z" />
    <glyph glyph-name="uni1E97" unicode="&#x1e97;" horiz-adv-x="407" 
d="M74 747q-26 0 -43.5 18.5t-17.5 44.5q0 28 17.5 45.5t43.5 17.5t43.5 -18t17.5 -45q0 -26 -18 -44.5t-43 -18.5zM251 747q-26 0 -43.5 18.5t-17.5 44.5q0 28 17.5 45.5t43.5 17.5t43.5 -18t17.5 -45q0 -26 -18 -44.5t-43 -18.5zM357 122l29 -88q-66 -39 -131 -39t-107 39
t-42 116v276h-75v86h75v146h114v-146h157v-86h-157v-255q0 -40 14 -56t43 -16q32 0 80 23z" />
    <glyph glyph-name="uni1E9E" unicode="&#x1e9e;" horiz-adv-x="678" 
d="M488 401q77 -18 118.5 -69t41.5 -127q0 -95 -64.5 -150t-177.5 -55h-81v105h81q57 0 89.5 27t32.5 74q0 49 -32 76t-90 27h-45v101l137 157q-52 31 -127 31q-82 0 -127.5 -47t-45.5 -130v-421h-118v420q0 133 76 208t212 75q135 0 231 -77v-99z" />
    <glyph glyph-name="uni1EA0" unicode="&#x1ea0;" horiz-adv-x="738" 
d="M737 0h-126l-67 158h-353l-67 -158h-123l309 700h121zM235 263h264l-132 311zM365 -51q29 0 48 -19t19 -49q0 -29 -19 -48.5t-48 -19.5t-48 19.5t-19 48.5q0 30 19 49t48 19z" />
    <glyph glyph-name="uni1EA1" unicode="&#x1ea1;" horiz-adv-x="586" 
d="M517 0h-113v65q-57 -70 -176 -70q-85 0 -136 46.5t-51 118.5q0 73 53 116t148 44h161v16q0 51 -32.5 79t-94.5 28q-78 0 -157 -54l-47 80q61 36 109.5 51.5t119.5 15.5q102 0 158 -49.5t57 -137.5zM252 86q61 0 103.5 28.5t47.5 72.5v49h-144q-57 0 -83.5 -16.5
t-26.5 -54.5q0 -36 27.5 -57.5t75.5 -21.5zM285 -51q29 0 48 -19t19 -49q0 -29 -19 -48.5t-48 -19.5t-48 19.5t-19 48.5q0 30 19 49t48 19z" />
    <glyph glyph-name="uni1EA2" unicode="&#x1ea2;" horiz-adv-x="738" 
d="M366 886q-44 0 -51 -44l-54 18q6 39 34.5 61t71.5 22q45 0 72.5 -26t27.5 -67q0 -53 -62 -104l-55 19q59 46 59 81q0 17 -11.5 28.5t-31.5 11.5zM611 0l-67 158h-353l-67 -158h-123l309 700h121l306 -700h-126zM235 263h264l-132 311z" />
    <glyph glyph-name="uni1EA3" unicode="&#x1ea3;" horiz-adv-x="586" 
d="M287 718q-44 0 -51 -44l-54 18q6 39 34.5 61t71.5 22q45 0 72.5 -26t27.5 -67q0 -53 -62 -104l-55 19q59 46 59 81q0 17 -11.5 28.5t-31.5 11.5zM517 0h-113v65q-57 -70 -176 -70q-85 0 -136 46.5t-51 118.5q0 73 53 116t148 44h161v16q0 51 -32.5 79t-94.5 28
q-78 0 -157 -54l-47 80q61 36 109.5 51.5t119.5 15.5q102 0 158 -49.5t57 -137.5zM252 86q61 0 103.5 28.5t47.5 72.5v49h-144q-57 0 -83.5 -16.5t-26.5 -54.5q0 -36 27.5 -57.5t75.5 -21.5z" />
    <glyph glyph-name="uni1EA4" unicode="&#x1ea4;" horiz-adv-x="738" 
d="M686 980l-122 -96h-84l106 145zM369 868l-62 -86h-94l103 137h106l103 -137h-94zM611 0l-67 158h-353l-67 -158h-123l309 700h121l306 -700h-126zM235 263h264l-132 311z" />
    <glyph glyph-name="uni1EA5" unicode="&#x1ea5;" horiz-adv-x="586" 
d="M607 812l-122 -96h-84l106 145zM290 700l-62 -86h-94l103 137h106l103 -137h-94zM301 536q102 0 158 -49.5t57 -137.5l1 -349h-113v65q-57 -70 -176 -70q-85 0 -136 46.5t-51 118.5q0 73 53 116t148 44h161v16q0 51 -32.5 79t-94.5 28q-78 0 -157 -54l-47 80
q61 36 109.5 51.5t119.5 15.5zM252 86q61 0 103.5 28.5t47.5 72.5v49h-144q-57 0 -83.5 -16.5t-26.5 -54.5q0 -36 27.5 -57.5t75.5 -21.5z" />
    <glyph glyph-name="uni1EA6" unicode="&#x1ea6;" horiz-adv-x="738" 
d="M605 884h-84l-122 96l100 49zM369 868l-62 -86h-94l103 137h106l103 -137h-94zM611 0l-67 158h-353l-67 -158h-123l309 700h121l306 -700h-126zM235 263h264l-132 311z" />
    <glyph glyph-name="uni1EA7" unicode="&#x1ea7;" horiz-adv-x="586" 
d="M526 716h-84l-122 96l100 49zM290 700l-62 -86h-94l103 137h106l103 -137h-94zM301 536q102 0 158 -49.5t57 -137.5l1 -349h-113v65q-57 -70 -176 -70q-85 0 -136 46.5t-51 118.5q0 73 53 116t148 44h161v16q0 51 -32.5 79t-94.5 28q-78 0 -157 -54l-47 80
q61 36 109.5 51.5t119.5 15.5zM252 86q61 0 103.5 28.5t47.5 72.5v49h-144q-57 0 -83.5 -16.5t-26.5 -54.5q0 -36 27.5 -57.5t75.5 -21.5z" />
    <glyph glyph-name="uni1EA8" unicode="&#x1ea8;" horiz-adv-x="738" 
d="M496 1012q-44 0 -51 -45l-54 19q6 38 34.5 60t71.5 22q45 0 72.5 -26t27.5 -66q0 -55 -62 -104l-55 19q59 46 59 81q0 17 -11.5 28.5t-31.5 11.5zM369 868l-62 -86h-94l103 137h106l103 -137h-94zM611 0l-67 158h-353l-67 -158h-123l309 700h121l306 -700h-126zM235 263
h264l-132 311z" />
    <glyph glyph-name="uni1EA9" unicode="&#x1ea9;" horiz-adv-x="586" 
d="M417 844q-44 0 -51 -45l-54 19q6 38 34.5 60t71.5 22q45 0 72.5 -26t27.5 -66q0 -55 -62 -104l-55 19q59 46 59 81q0 17 -11.5 28.5t-31.5 11.5zM290 700l-62 -86h-94l103 137h106l103 -137h-94zM301 536q102 0 158 -49.5t57 -137.5l1 -349h-113v65q-57 -70 -176 -70
q-85 0 -136 46.5t-51 118.5q0 73 53 116t148 44h161v16q0 51 -32.5 79t-94.5 28q-78 0 -157 -54l-47 80q61 36 109.5 51.5t119.5 15.5zM252 86q61 0 103.5 28.5t47.5 72.5v49h-144q-57 0 -83.5 -16.5t-26.5 -54.5q0 -36 27.5 -57.5t75.5 -21.5z" />
    <glyph glyph-name="uni1EAA" unicode="&#x1eaa;" horiz-adv-x="738" 
d="M314 991q-37 0 -37 -49h-74q0 128 92 128q30 0 67.5 -27.5t51.5 -27.5q38 0 38 49h73q0 -127 -91 -127q-33 0 -69.5 27t-50.5 27zM316 919h106l103 -137h-94l-62 86l-62 -86h-94zM611 0l-67 158h-353l-67 -158h-123l309 700h121l306 -700h-126zM235 263h264l-132 311z
" />
    <glyph glyph-name="uni1EAB" unicode="&#x1eab;" horiz-adv-x="586" 
d="M235 823q-37 0 -37 -49h-74q0 128 92 128q30 0 67.5 -27.5t51.5 -27.5q38 0 38 49h73q0 -127 -91 -127q-33 0 -69.5 27t-50.5 27zM237 751h106l103 -137h-94l-62 86l-62 -86h-94zM517 0h-113v65q-57 -70 -176 -70q-85 0 -136 46.5t-51 118.5q0 73 53 116t148 44h161v16
q0 51 -32.5 79t-94.5 28q-78 0 -157 -54l-47 80q61 36 109.5 51.5t119.5 15.5q102 0 158 -49.5t57 -137.5zM252 86q61 0 103.5 28.5t47.5 72.5v49h-144q-57 0 -83.5 -16.5t-26.5 -54.5q0 -36 27.5 -57.5t75.5 -21.5z" />
    <glyph glyph-name="uni1EAC" unicode="&#x1eac;" horiz-adv-x="738" 
d="M369 867l-62 -86h-94l103 138h106l103 -138h-94zM737 0h-126l-67 158h-353l-67 -158h-123l309 700h121zM235 263h264l-132 311zM365 -51q29 0 48 -19t19 -49q0 -29 -19 -48.5t-48 -19.5t-48 19.5t-19 48.5q0 30 19 49t48 19z" />
    <glyph glyph-name="uni1EAD" unicode="&#x1ead;" horiz-adv-x="586" 
d="M290 699l-62 -86h-94l103 138h106l103 -138h-94zM517 0h-113v65q-57 -70 -176 -70q-85 0 -136 46.5t-51 118.5q0 73 53 116t148 44h161v16q0 51 -32.5 79t-94.5 28q-78 0 -157 -54l-47 80q61 36 109.5 51.5t119.5 15.5q102 0 158 -49.5t57 -137.5zM252 86
q61 0 103.5 28.5t47.5 72.5v49h-144q-57 0 -83.5 -16.5t-26.5 -54.5q0 -36 27.5 -57.5t75.5 -21.5zM285 -51q29 0 48 -19t19 -49q0 -29 -19 -48.5t-48 -19.5t-48 19.5t-19 48.5q0 30 19 49t48 19z" />
    <glyph glyph-name="uni1EAE" unicode="&#x1eae;" horiz-adv-x="738" 
d="M548 1042l-122 -96h-102l106 145zM369 775q-60 0 -99.5 38.5t-41.5 100.5h78q2 -29 19.5 -47t43.5 -18t43.5 18t19.5 47h78q-2 -62 -41.5 -100.5t-99.5 -38.5zM611 0l-67 158h-353l-67 -158h-123l309 700h121l306 -700h-126zM235 263h264l-132 311z" />
    <glyph glyph-name="uni1EAF" unicode="&#x1eaf;" horiz-adv-x="586" 
d="M469 874l-122 -96h-102l106 145zM290 607q-60 0 -99.5 38.5t-41.5 100.5h78q2 -29 19.5 -47t43.5 -18t43.5 18t19.5 47h78q-2 -62 -41.5 -100.5t-99.5 -38.5zM517 0h-113v65q-57 -70 -176 -70q-85 0 -136 46.5t-51 118.5q0 73 53 116t148 44h161v16q0 51 -32.5 79
t-94.5 28q-78 0 -157 -54l-47 80q61 36 109.5 51.5t119.5 15.5q102 0 158 -49.5t57 -137.5zM252 86q61 0 103.5 28.5t47.5 72.5v49h-144q-57 0 -83.5 -16.5t-26.5 -54.5q0 -36 27.5 -57.5t75.5 -21.5z" />
    <glyph glyph-name="uni1EB0" unicode="&#x1eb0;" horiz-adv-x="738" 
d="M413 947h-102l-122 96l118 49zM369 849q26 0 43.5 18t19.5 47h78q-2 -62 -41.5 -100.5t-99.5 -38.5t-99.5 38.5t-41.5 100.5h78q2 -29 19.5 -47t43.5 -18zM611 0l-67 158h-353l-67 -158h-123l309 700h121l306 -700h-126zM235 263h264l-132 311z" />
    <glyph glyph-name="uni1EB1" unicode="&#x1eb1;" horiz-adv-x="586" 
d="M334 779h-102l-122 96l118 49zM290 681q26 0 43.5 18t19.5 47h78q-2 -62 -41.5 -100.5t-99.5 -38.5t-99.5 38.5t-41.5 100.5h78q2 -29 19.5 -47t43.5 -18zM517 0h-113v65q-57 -70 -176 -70q-85 0 -136 46.5t-51 118.5q0 73 53 116t148 44h161v16q0 51 -32.5 79t-94.5 28
q-78 0 -157 -54l-47 80q61 36 109.5 51.5t119.5 15.5q102 0 158 -49.5t57 -137.5zM252 86q61 0 103.5 28.5t47.5 72.5v49h-144q-57 0 -83.5 -16.5t-26.5 -54.5q0 -36 27.5 -57.5t75.5 -21.5z" />
    <glyph glyph-name="uni1EB2" unicode="&#x1eb2;" horiz-adv-x="738" 
d="M376 1064q-44 0 -51 -45l-54 19q6 38 34.5 60t71.5 22q45 0 72.5 -26t27.5 -66q0 -55 -62 -104l-55 19q59 46 59 81q0 17 -11.5 28.5t-31.5 11.5zM369 775q-60 0 -99.5 38.5t-41.5 100.5h78q2 -29 19.5 -47t43.5 -18t43.5 18t19.5 47h78q-2 -62 -41.5 -100.5t-99.5 -38.5
zM611 0l-67 158h-353l-67 -158h-123l309 700h121l306 -700h-126zM235 263h264l-132 311z" />
    <glyph glyph-name="uni1EB3" unicode="&#x1eb3;" horiz-adv-x="586" 
d="M297 896q-44 0 -51 -45l-54 19q6 38 34.5 60t71.5 22q45 0 72.5 -26t27.5 -66q0 -55 -62 -104l-55 19q59 46 59 81q0 17 -11.5 28.5t-31.5 11.5zM290 607q-60 0 -99.5 38.5t-41.5 100.5h78q2 -29 19.5 -47t43.5 -18t43.5 18t19.5 47h78q-2 -62 -41.5 -100.5t-99.5 -38.5z
M517 0h-113v65q-57 -70 -176 -70q-85 0 -136 46.5t-51 118.5q0 73 53 116t148 44h161v16q0 51 -32.5 79t-94.5 28q-78 0 -157 -54l-47 80q61 36 109.5 51.5t119.5 15.5q102 0 158 -49.5t57 -137.5zM252 86q61 0 103.5 28.5t47.5 72.5v49h-144q-57 0 -83.5 -16.5t-26.5 -54.5
q0 -36 27.5 -57.5t75.5 -21.5z" />
    <glyph glyph-name="uni1EB4" unicode="&#x1eb4;" horiz-adv-x="738" 
d="M317 990q-37 0 -37 -48h-74q0 128 92 128q30 0 67.5 -27.5t51.5 -27.5q38 0 38 48h73q0 -127 -91 -127q-33 0 -69.5 27t-50.5 27zM369 849q26 0 43.5 18t19.5 47h78q-2 -62 -41.5 -100.5t-99.5 -38.5t-99.5 38.5t-41.5 100.5h78q2 -29 19.5 -47t43.5 -18zM611 0l-67 158
h-353l-67 -158h-123l309 700h121l306 -700h-126zM235 263h264l-132 311z" />
    <glyph glyph-name="uni1EB5" unicode="&#x1eb5;" horiz-adv-x="586" 
d="M238 822q-37 0 -37 -48h-74q0 128 92 128q30 0 67.5 -27.5t51.5 -27.5q38 0 38 48h73q0 -127 -91 -127q-33 0 -69.5 27t-50.5 27zM290 681q26 0 43.5 18t19.5 47h78q-2 -62 -41.5 -100.5t-99.5 -38.5t-99.5 38.5t-41.5 100.5h78q2 -29 19.5 -47t43.5 -18zM517 0h-113v65
q-57 -70 -176 -70q-85 0 -136 46.5t-51 118.5q0 73 53 116t148 44h161v16q0 51 -32.5 79t-94.5 28q-78 0 -157 -54l-47 80q61 36 109.5 51.5t119.5 15.5q102 0 158 -49.5t57 -137.5zM252 86q61 0 103.5 28.5t47.5 72.5v49h-144q-57 0 -83.5 -16.5t-26.5 -54.5
q0 -36 27.5 -57.5t75.5 -21.5z" />
    <glyph glyph-name="uni1EB6" unicode="&#x1eb6;" horiz-adv-x="738" 
d="M369 775q-60 0 -99.5 38t-41.5 100h78q2 -29 19.5 -47t43.5 -18t43.5 18t19.5 47h78q-2 -62 -41.5 -100t-99.5 -38zM737 0h-126l-67 158h-353l-67 -158h-123l309 700h121zM235 263h264l-132 311zM365 -51q29 0 48 -19t19 -49q0 -29 -19 -48.5t-48 -19.5t-48 19.5
t-19 48.5q0 30 19 49t48 19z" />
    <glyph glyph-name="uni1EB7" unicode="&#x1eb7;" horiz-adv-x="586" 
d="M290 607q-60 0 -99.5 38t-41.5 100h78q2 -29 19.5 -47t43.5 -18t43.5 18t19.5 47h78q-2 -62 -41.5 -100t-99.5 -38zM517 0h-113v65q-57 -70 -176 -70q-85 0 -136 46.5t-51 118.5q0 73 53 116t148 44h161v16q0 51 -32.5 79t-94.5 28q-78 0 -157 -54l-47 80
q61 36 109.5 51.5t119.5 15.5q102 0 158 -49.5t57 -137.5zM252 86q61 0 103.5 28.5t47.5 72.5v49h-144q-57 0 -83.5 -16.5t-26.5 -54.5q0 -36 27.5 -57.5t75.5 -21.5zM285 -51q29 0 48 -19t19 -49q0 -29 -19 -48.5t-48 -19.5t-48 19.5t-19 48.5q0 30 19 49t48 19z" />
    <glyph glyph-name="uni1EB8" unicode="&#x1eb8;" horiz-adv-x="656" 
d="M92 700h500v-106h-382v-190h342v-105h-342v-193h394v-106h-512v700zM348 -51q29 0 48 -19t19 -49q0 -29 -19 -48.5t-48 -19.5t-48 19.5t-19 48.5q0 30 19 49t48 19z" />
    <glyph glyph-name="uni1EB9" unicode="&#x1eb9;" horiz-adv-x="588" 
d="M304 536q137 0 198.5 -82.5t50.5 -231.5h-402q14 -62 58 -97.5t107 -35.5q90 0 150 62l61 -65q-82 -90 -220 -90q-123 0 -197.5 74.5t-74.5 194.5t75 195t194 76zM149 306h304q-3 64 -43 101t-105 37q-63 0 -105 -37t-51 -101zM301 -51q29 0 48 -19t19 -49
q0 -29 -19 -48.5t-48 -19.5t-48 19.5t-19 48.5q0 30 19 49t48 19z" />
    <glyph glyph-name="uni1EBA" unicode="&#x1eba;" horiz-adv-x="656" 
d="M243 860q6 39 34.5 61t71.5 22q45 0 72.5 -26t27.5 -67q0 -53 -62 -104l-55 19q59 46 59 81q0 17 -11.5 28.5t-31.5 11.5q-44 0 -51 -44zM92 700h500v-106h-382v-190h342v-105h-342v-193h394v-106h-512v700z" />
    <glyph glyph-name="uni1EBB" unicode="&#x1ebb;" horiz-adv-x="588" 
d="M296 718q-44 0 -51 -44l-54 18q6 39 34.5 61t71.5 22q45 0 72.5 -26t27.5 -67q0 -53 -62 -104l-55 19q59 46 59 81q0 17 -11.5 28.5t-31.5 11.5zM304 536q137 0 198.5 -82.5t50.5 -231.5h-402q14 -62 58 -97.5t107 -35.5q90 0 150 62l61 -65q-82 -90 -220 -90
q-123 0 -197.5 74.5t-74.5 194.5t75 195t194 76zM149 306h304q-3 64 -43 101t-105 37q-63 0 -105 -37t-51 -101z" />
    <glyph glyph-name="uni1EBC" unicode="&#x1ebc;" horiz-adv-x="656" 
d="M512 920q0 -131 -91 -131q-33 0 -69.5 27.5t-50.5 27.5q-37 0 -37 -49h-74q0 131 92 131q30 0 67.5 -27.5t51.5 -27.5q38 0 38 49h73zM92 700h500v-106h-382v-190h342v-105h-342v-193h394v-106h-512v700z" />
    <glyph glyph-name="uni1EBD" unicode="&#x1ebd;" horiz-adv-x="588" 
d="M249 676q-37 0 -37 -49h-74q0 131 92 131q30 0 67.5 -27.5t51.5 -27.5q38 0 38 49h73q0 -131 -91 -131q-33 0 -69.5 27.5t-50.5 27.5zM304 536q137 0 198.5 -82.5t50.5 -231.5h-402q14 -62 58 -97.5t107 -35.5q90 0 150 62l61 -65q-82 -90 -220 -90q-123 0 -197.5 74.5
t-74.5 194.5t75 195t194 76zM149 306h304q-3 64 -43 101t-105 37q-63 0 -105 -37t-51 -101z" />
    <glyph glyph-name="uni1EBE" unicode="&#x1ebe;" horiz-adv-x="656" 
d="M568 1029l100 -49l-122 -96h-84zM298 919h106l103 -137h-94l-62 86l-62 -86h-94zM92 700h500v-106h-382v-190h342v-105h-342v-193h394v-106h-512v700z" />
    <glyph glyph-name="uni1EBF" unicode="&#x1ebf;" horiz-adv-x="588" 
d="M616 812l-122 -96h-84l106 145zM299 700l-62 -86h-94l103 137h106l103 -137h-94zM304 536q137 0 198.5 -82.5t50.5 -231.5h-402q14 -62 58 -97.5t107 -35.5q90 0 150 62l61 -65q-82 -90 -220 -90q-123 0 -197.5 74.5t-74.5 194.5t75 195t194 76zM149 306h304
q-3 64 -43 101t-105 37q-63 0 -105 -37t-51 -101z" />
    <glyph glyph-name="uni1EC0" unicode="&#x1ec0;" horiz-adv-x="656" 
d="M481 1029l106 -145h-84l-122 96zM298 919h106l103 -137h-94l-62 86l-62 -86h-94zM92 700h500v-106h-382v-190h342v-105h-342v-193h394v-106h-512v700z" />
    <glyph glyph-name="uni1EC1" unicode="&#x1ec1;" horiz-adv-x="588" 
d="M535 716h-84l-122 96l100 49zM299 700l-62 -86h-94l103 137h106l103 -137h-94zM304 536q137 0 198.5 -82.5t50.5 -231.5h-402q14 -62 58 -97.5t107 -35.5q90 0 150 62l61 -65q-82 -90 -220 -90q-123 0 -197.5 74.5t-74.5 194.5t75 195t194 76zM149 306h304q-3 64 -43 101
t-105 37q-63 0 -105 -37t-51 -101z" />
    <glyph glyph-name="uni1EC2" unicode="&#x1ec2;" horiz-adv-x="656" 
d="M373 986q6 38 34.5 60t71.5 22q45 0 72.5 -26t27.5 -66q0 -55 -62 -104l-55 19q59 46 59 81q0 17 -11.5 28.5t-31.5 11.5q-44 0 -51 -45zM298 919h106l103 -137h-94l-62 86l-62 -86h-94zM92 700h500v-106h-382v-190h342v-105h-342v-193h394v-106h-512v700z" />
    <glyph glyph-name="uni1EC3" unicode="&#x1ec3;" horiz-adv-x="588" 
d="M426 844q-44 0 -51 -45l-54 19q6 38 34.5 60t71.5 22q45 0 72.5 -26t27.5 -66q0 -55 -62 -104l-55 19q59 46 59 81q0 17 -11.5 28.5t-31.5 11.5zM299 700l-62 -86h-94l103 137h106l103 -137h-94zM304 536q137 0 198.5 -82.5t50.5 -231.5h-402q14 -62 58 -97.5t107 -35.5
q90 0 150 62l61 -65q-82 -90 -220 -90q-123 0 -197.5 74.5t-74.5 194.5t75 195t194 76zM149 306h304q-3 64 -43 101t-105 37q-63 0 -105 -37t-51 -101z" />
    <glyph glyph-name="uni1EC4" unicode="&#x1ec4;" horiz-adv-x="656" 
d="M507 1064q0 -127 -91 -127q-33 0 -69.5 27t-50.5 27q-37 0 -37 -49h-74q0 128 92 128q30 0 67.5 -27.5t51.5 -27.5q38 0 38 49h73zM298 919h106l103 -137h-94l-62 86l-62 -86h-94zM92 700h500v-106h-382v-190h342v-105h-342v-193h394v-106h-512v700z" />
    <glyph glyph-name="uni1EC5" unicode="&#x1ec5;" horiz-adv-x="588" 
d="M244 823q-37 0 -37 -49h-74q0 128 92 128q30 0 67.5 -27.5t51.5 -27.5q38 0 38 49h73q0 -127 -91 -127q-33 0 -69.5 27t-50.5 27zM246 751h106l103 -137h-94l-62 86l-62 -86h-94zM304 536q137 0 198.5 -82.5t50.5 -231.5h-402q14 -62 58 -97.5t107 -35.5q90 0 150 62
l61 -65q-82 -90 -220 -90q-123 0 -197.5 74.5t-74.5 194.5t75 195t194 76zM149 306h304q-3 64 -43 101t-105 37q-63 0 -105 -37t-51 -101z" />
    <glyph glyph-name="uni1EC6" unicode="&#x1ec6;" horiz-adv-x="656" 
d="M404 919l103 -138h-94l-62 86l-62 -86h-94l103 138h106zM92 700h500v-106h-382v-190h342v-105h-342v-193h394v-106h-512v700zM348 -51q29 0 48 -19t19 -49q0 -29 -19 -48.5t-48 -19.5t-48 19.5t-19 48.5q0 30 19 49t48 19z" />
    <glyph glyph-name="uni1EC7" unicode="&#x1ec7;" horiz-adv-x="588" 
d="M299 699l-62 -86h-94l103 138h106l103 -138h-94zM304 536q137 0 198.5 -82.5t50.5 -231.5h-402q14 -62 58 -97.5t107 -35.5q90 0 150 62l61 -65q-82 -90 -220 -90q-123 0 -197.5 74.5t-74.5 194.5t75 195t194 76zM149 306h304q-3 64 -43 101t-105 37q-63 0 -105 -37
t-51 -101zM301 -51q29 0 48 -19t19 -49q0 -29 -19 -48.5t-48 -19.5t-48 19.5t-19 48.5q0 30 19 49t48 19z" />
    <glyph glyph-name="uni1EC8" unicode="&#x1ec8;" horiz-adv-x="302" 
d="M43 860q6 39 34.5 61t71.5 22q45 0 72.5 -26t27.5 -67q0 -53 -62 -104l-55 19q59 46 59 81q0 17 -11.5 28.5t-31.5 11.5q-44 0 -51 -44zM92 700h118v-700h-118v700z" />
    <glyph glyph-name="uni1EC9" unicode="&#x1ec9;" horiz-adv-x="284" 
d="M34 692q6 39 34.5 61t71.5 22q45 0 72.5 -26t27.5 -67q0 -53 -62 -104l-55 19q59 46 59 81q0 17 -11.5 28.5t-31.5 11.5q-44 0 -51 -44zM85 532h114v-532h-114v532z" />
    <glyph glyph-name="uni1ECA" unicode="&#x1eca;" horiz-adv-x="302" 
d="M92 700h118v-700h-118v700zM151 -51q29 0 48 -19t19 -49q0 -29 -19 -48.5t-48 -19.5t-48 19.5t-19 48.5q0 30 19 49t48 19z" />
    <glyph glyph-name="uni1ECB" unicode="&#x1ecb;" horiz-adv-x="284" 
d="M142 753q29 0 48 -19.5t19 -49.5q0 -29 -19 -48.5t-48 -19.5t-48 19.5t-19 48.5q0 30 19 49.5t48 19.5zM85 532h114v-532h-114v532zM142 -51q29 0 48 -19t19 -49q0 -29 -19 -48.5t-48 -19.5t-48 19.5t-19 48.5q0 30 19 49t48 19z" />
    <glyph glyph-name="uni1ECC" unicode="&#x1ecc;" horiz-adv-x="810" 
d="M405 703q157 0 264 -101.5t107 -251.5t-107 -252.5t-264 -102.5t-264 102.5t-107 252.5t107 251.5t264 101.5zM406 597q-104 0 -178 -71.5t-74 -175.5t74.5 -176.5t177.5 -72.5t176 72.5t73 176.5t-73 175.5t-176 71.5zM406 -51q29 0 48 -19t19 -49q0 -29 -19 -48.5
t-48 -19.5t-48 19.5t-19 48.5q0 30 19 49t48 19z" />
    <glyph glyph-name="uni1ECD" unicode="&#x1ecd;" horiz-adv-x="625" 
d="M313 536q123 0 200 -74.5t77 -194.5q0 -121 -77 -196t-200 -75q-124 0 -201 75t-77 196q0 120 77 194.5t201 74.5zM313 438q-72 0 -117.5 -48.5t-45.5 -124.5q0 -77 45.5 -125t117.5 -48t117 48t45 125q0 76 -45.5 124.5t-116.5 48.5zM313 -51q29 0 48 -19t19 -49
q0 -29 -19 -48.5t-48 -19.5t-48 19.5t-19 48.5q0 30 19 49t48 19z" />
    <glyph glyph-name="uni1ECE" unicode="&#x1ece;" horiz-adv-x="810" 
d="M292 860q6 39 34.5 61t71.5 22q45 0 72.5 -26t27.5 -67q0 -53 -62 -104l-55 19q59 46 59 81q0 17 -11.5 28.5t-31.5 11.5q-44 0 -51 -44zM405 703q157 0 264 -101.5t107 -251.5t-107 -252.5t-264 -102.5t-264 102.5t-107 252.5t107 251.5t264 101.5zM406 597
q-104 0 -178 -71.5t-74 -175.5t74.5 -176.5t177.5 -72.5t176 72.5t73 176.5t-73 175.5t-176 71.5z" />
    <glyph glyph-name="uni1ECF" unicode="&#x1ecf;" horiz-adv-x="625" 
d="M205 692q6 39 34.5 61t71.5 22q45 0 72.5 -26t27.5 -67q0 -53 -62 -104l-55 19q59 46 59 81q0 17 -11.5 28.5t-31.5 11.5q-44 0 -51 -44zM313 536q123 0 200 -74.5t77 -194.5q0 -121 -77 -196t-200 -75q-124 0 -201 75t-77 196q0 120 77 194.5t201 74.5zM313 438
q-72 0 -117.5 -48.5t-45.5 -124.5q0 -77 45.5 -125t117.5 -48t117 48t45 125q0 76 -45.5 124.5t-116.5 48.5z" />
    <glyph glyph-name="uni1ED0" unicode="&#x1ed0;" horiz-adv-x="810" 
d="M617 1029l100 -49l-122 -96h-84zM347 919h106l103 -137h-94l-62 86l-62 -86h-94zM405 703q157 0 264 -101.5t107 -251.5t-107 -252.5t-264 -102.5t-264 102.5t-107 252.5t107 251.5t264 101.5zM406 597q-104 0 -178 -71.5t-74 -175.5t74.5 -176.5t177.5 -72.5t176 72.5
t73 176.5t-73 175.5t-176 71.5z" />
    <glyph glyph-name="uni1ED1" unicode="&#x1ed1;" horiz-adv-x="625" 
d="M530 861l100 -49l-122 -96h-84zM260 751h106l103 -137h-94l-62 86l-62 -86h-94zM313 536q123 0 200 -74.5t77 -194.5q0 -121 -77 -196t-200 -75q-124 0 -201 75t-77 196q0 120 77 194.5t201 74.5zM313 438q-72 0 -117.5 -48.5t-45.5 -124.5q0 -77 45.5 -125t117.5 -48
t117 48t45 125q0 76 -45.5 124.5t-116.5 48.5z" />
    <glyph glyph-name="uni1ED2" unicode="&#x1ed2;" horiz-adv-x="810" 
d="M530 1029l106 -145h-84l-122 96zM347 919h106l103 -137h-94l-62 86l-62 -86h-94zM405 703q157 0 264 -101.5t107 -251.5t-107 -252.5t-264 -102.5t-264 102.5t-107 252.5t107 251.5t264 101.5zM406 597q-104 0 -178 -71.5t-74 -175.5t74.5 -176.5t177.5 -72.5t176 72.5
t73 176.5t-73 175.5t-176 71.5z" />
    <glyph glyph-name="uni1ED3" unicode="&#x1ed3;" horiz-adv-x="625" 
d="M443 861l106 -145h-84l-122 96zM260 751h106l103 -137h-94l-62 86l-62 -86h-94zM313 536q123 0 200 -74.5t77 -194.5q0 -121 -77 -196t-200 -75q-124 0 -201 75t-77 196q0 120 77 194.5t201 74.5zM313 438q-72 0 -117.5 -48.5t-45.5 -124.5q0 -77 45.5 -125t117.5 -48
t117 48t45 125q0 76 -45.5 124.5t-116.5 48.5z" />
    <glyph glyph-name="uni1ED4" unicode="&#x1ed4;" horiz-adv-x="810" 
d="M422 986q6 38 34.5 60t71.5 22q45 0 72.5 -26t27.5 -66q0 -55 -62 -104l-55 19q59 46 59 81q0 17 -11.5 28.5t-31.5 11.5q-44 0 -51 -45zM347 919h106l103 -137h-94l-62 86l-62 -86h-94zM405 703q157 0 264 -101.5t107 -251.5t-107 -252.5t-264 -102.5t-264 102.5
t-107 252.5t107 251.5t264 101.5zM406 597q-104 0 -178 -71.5t-74 -175.5t74.5 -176.5t177.5 -72.5t176 72.5t73 176.5t-73 175.5t-176 71.5z" />
    <glyph glyph-name="uni1ED5" unicode="&#x1ed5;" horiz-adv-x="625" 
d="M335 818q6 38 34.5 60t71.5 22q45 0 72.5 -26t27.5 -66q0 -55 -62 -104l-55 19q59 46 59 81q0 17 -11.5 28.5t-31.5 11.5q-44 0 -51 -45zM260 751h106l103 -137h-94l-62 86l-62 -86h-94zM313 536q123 0 200 -74.5t77 -194.5q0 -121 -77 -196t-200 -75q-124 0 -201 75
t-77 196q0 120 77 194.5t201 74.5zM313 438q-72 0 -117.5 -48.5t-45.5 -124.5q0 -77 45.5 -125t117.5 -48t117 48t45 125q0 76 -45.5 124.5t-116.5 48.5z" />
    <glyph glyph-name="uni1ED6" unicode="&#x1ed6;" horiz-adv-x="810" 
d="M556 1064q0 -127 -91 -127q-33 0 -69.5 27t-50.5 27q-37 0 -37 -49h-74q0 128 92 128q30 0 67.5 -27.5t51.5 -27.5q38 0 38 49h73zM347 919h106l103 -137h-94l-62 86l-62 -86h-94zM405 703q157 0 264 -101.5t107 -251.5t-107 -252.5t-264 -102.5t-264 102.5t-107 252.5
t107 251.5t264 101.5zM406 597q-104 0 -178 -71.5t-74 -175.5t74.5 -176.5t177.5 -72.5t176 72.5t73 176.5t-73 175.5t-176 71.5z" />
    <glyph glyph-name="uni1ED7" unicode="&#x1ed7;" horiz-adv-x="625" 
d="M469 896q0 -127 -91 -127q-33 0 -69.5 27t-50.5 27q-37 0 -37 -49h-74q0 128 92 128q30 0 67.5 -27.5t51.5 -27.5q38 0 38 49h73zM260 751h106l103 -137h-94l-62 86l-62 -86h-94zM313 536q123 0 200 -74.5t77 -194.5q0 -121 -77 -196t-200 -75q-124 0 -201 75t-77 196
q0 120 77 194.5t201 74.5zM313 438q-72 0 -117.5 -48.5t-45.5 -124.5q0 -77 45.5 -125t117.5 -48t117 48t45 125q0 76 -45.5 124.5t-116.5 48.5z" />
    <glyph glyph-name="uni1ED8" unicode="&#x1ed8;" horiz-adv-x="810" 
d="M453 919l103 -138h-94l-62 86l-62 -86h-94l103 138h106zM405 703q157 0 264 -101.5t107 -251.5t-107 -252.5t-264 -102.5t-264 102.5t-107 252.5t107 251.5t264 101.5zM406 597q-104 0 -178 -71.5t-74 -175.5t74.5 -176.5t177.5 -72.5t176 72.5t73 176.5t-73 175.5
t-176 71.5zM406 -51q29 0 48 -19t19 -49q0 -29 -19 -48.5t-48 -19.5t-48 19.5t-19 48.5q0 30 19 49t48 19z" />
    <glyph glyph-name="uni1ED9" unicode="&#x1ed9;" horiz-adv-x="625" 
d="M366 751l103 -138h-94l-62 86l-62 -86h-94l103 138h106zM313 536q123 0 200 -74.5t77 -194.5q0 -121 -77 -196t-200 -75q-124 0 -201 75t-77 196q0 120 77 194.5t201 74.5zM313 438q-72 0 -117.5 -48.5t-45.5 -124.5q0 -77 45.5 -125t117.5 -48t117 48t45 125
q0 76 -45.5 124.5t-116.5 48.5zM313 -51q29 0 48 -19t19 -49q0 -29 -19 -48.5t-48 -19.5t-48 19.5t-19 48.5q0 30 19 49t48 19z" />
    <glyph glyph-name="uni1EDA" unicode="&#x1eda;" horiz-adv-x="810" 
d="M567 875l-122 -98h-102l106 148zM596 655q83 -47 131.5 -127t48.5 -178q0 -150 -107 -252.5t-264 -102.5t-264 102.5t-107 252.5t107 251.5t264 101.5q43 0 84 -9q37 6 60.5 33t23.5 65h88q0 -85 -65 -137zM406 101q103 0 176 72.5t73 176.5t-73 175.5t-176 71.5
q-104 0 -178 -71.5t-74 -175.5t74.5 -176.5t177.5 -72.5z" />
    <glyph glyph-name="uni1EDB" unicode="&#x1edb;" horiz-adv-x="625" 
d="M480 707l-122 -98h-102l106 148zM506 468q84 -76 84 -201q0 -121 -77 -196t-200 -75q-124 0 -201 75t-77 196q0 120 77 194.5t201 74.5q62 0 110 -19q31 10 49.5 35t18.5 59h88q0 -91 -73 -143zM313 92q72 0 117 48t45 125q0 76 -45.5 124.5t-116.5 48.5
q-72 0 -117.5 -48.5t-45.5 -124.5q0 -77 45.5 -125t117.5 -48z" />
    <glyph glyph-name="uni1EDC" unicode="&#x1edc;" horiz-adv-x="810" 
d="M457 777h-102l-122 98l118 50zM596 655q83 -47 131.5 -127t48.5 -178q0 -150 -107 -252.5t-264 -102.5t-264 102.5t-107 252.5t107 251.5t264 101.5q43 0 84 -9q37 6 60.5 33t23.5 65h88q0 -85 -65 -137zM406 101q103 0 176 72.5t73 176.5t-73 175.5t-176 71.5
q-104 0 -178 -71.5t-74 -175.5t74.5 -176.5t177.5 -72.5z" />
    <glyph glyph-name="uni1EDD" unicode="&#x1edd;" horiz-adv-x="625" 
d="M370 609h-102l-122 98l118 50zM506 468q84 -76 84 -201q0 -121 -77 -196t-200 -75q-124 0 -201 75t-77 196q0 120 77 194.5t201 74.5q62 0 110 -19q31 10 49.5 35t18.5 59h88q0 -91 -73 -143zM313 92q72 0 117 48t45 125q0 76 -45.5 124.5t-116.5 48.5
q-72 0 -117.5 -48.5t-45.5 -124.5q0 -77 45.5 -125t117.5 -48z" />
    <glyph glyph-name="uni1EDE" unicode="&#x1ede;" horiz-adv-x="810" 
d="M397 886q-44 0 -51 -44l-54 18q6 39 34.5 61t71.5 22q45 0 72.5 -26t27.5 -67q0 -53 -62 -104l-55 19q59 46 59 81q0 17 -11.5 28.5t-31.5 11.5zM596 655q83 -47 131.5 -127t48.5 -178q0 -150 -107 -252.5t-264 -102.5t-264 102.5t-107 252.5t107 251.5t264 101.5
q43 0 84 -9q37 6 60.5 33t23.5 65h88q0 -85 -65 -137zM406 101q103 0 176 72.5t73 176.5t-73 175.5t-176 71.5q-104 0 -178 -71.5t-74 -175.5t74.5 -176.5t177.5 -72.5z" />
    <glyph glyph-name="uni1EDF" unicode="&#x1edf;" horiz-adv-x="625" 
d="M310 718q-44 0 -51 -44l-54 18q6 39 34.5 61t71.5 22q45 0 72.5 -26t27.5 -67q0 -53 -62 -104l-55 19q59 46 59 81q0 17 -11.5 28.5t-31.5 11.5zM506 468q84 -76 84 -201q0 -121 -77 -196t-200 -75q-124 0 -201 75t-77 196q0 120 77 194.5t201 74.5q62 0 110 -19
q31 10 49.5 35t18.5 59h88q0 -91 -73 -143zM313 92q72 0 117 48t45 125q0 76 -45.5 124.5t-116.5 48.5q-72 0 -117.5 -48.5t-45.5 -124.5q0 -77 45.5 -125t117.5 -48z" />
    <glyph glyph-name="uni1EE0" unicode="&#x1ee0;" horiz-adv-x="810" 
d="M350 844q-37 0 -37 -49h-74q0 131 92 131q30 0 67.5 -27.5t51.5 -27.5q38 0 38 49h73q0 -131 -91 -131q-33 0 -69.5 27.5t-50.5 27.5zM596 655q83 -47 131.5 -127t48.5 -178q0 -150 -107 -252.5t-264 -102.5t-264 102.5t-107 252.5t107 251.5t264 101.5q43 0 84 -9
q37 6 60.5 33t23.5 65h88q0 -85 -65 -137zM406 101q103 0 176 72.5t73 176.5t-73 175.5t-176 71.5q-104 0 -178 -71.5t-74 -175.5t74.5 -176.5t177.5 -72.5z" />
    <glyph glyph-name="uni1EE1" unicode="&#x1ee1;" horiz-adv-x="625" 
d="M263 676q-37 0 -37 -49h-74q0 131 92 131q30 0 67.5 -27.5t51.5 -27.5q38 0 38 49h73q0 -131 -91 -131q-33 0 -69.5 27.5t-50.5 27.5zM506 468q84 -76 84 -201q0 -121 -77 -196t-200 -75q-124 0 -201 75t-77 196q0 120 77 194.5t201 74.5q62 0 110 -19q31 10 49.5 35
t18.5 59h88q0 -91 -73 -143zM313 92q72 0 117 48t45 125q0 76 -45.5 124.5t-116.5 48.5q-72 0 -117.5 -48.5t-45.5 -124.5q0 -77 45.5 -125t117.5 -48z" />
    <glyph glyph-name="uni1EE2" unicode="&#x1ee2;" horiz-adv-x="810" 
d="M596 655q83 -47 131.5 -127t48.5 -178q0 -150 -107 -252.5t-264 -102.5t-264 102.5t-107 252.5t107 251.5t264 101.5q43 0 84 -9q37 6 60.5 33t23.5 65h88q0 -85 -65 -137zM406 101q103 0 176 72.5t73 176.5t-73 175.5t-176 71.5q-104 0 -178 -71.5t-74 -175.5
t74.5 -176.5t177.5 -72.5zM406 -51q29 0 48 -19t19 -49q0 -29 -19 -48.5t-48 -19.5t-48 19.5t-19 48.5q0 30 19 49t48 19z" />
    <glyph glyph-name="uni1EE3" unicode="&#x1ee3;" horiz-adv-x="625" 
d="M506 468q84 -76 84 -201q0 -121 -77 -196t-200 -75q-124 0 -201 75t-77 196q0 120 77 194.5t201 74.5q62 0 110 -19q31 10 49.5 35t18.5 59h88q0 -91 -73 -143zM313 92q72 0 117 48t45 125q0 76 -45.5 124.5t-116.5 48.5q-72 0 -117.5 -48.5t-45.5 -124.5
q0 -77 45.5 -125t117.5 -48zM313 -51q29 0 48 -19t19 -49q0 -29 -19 -48.5t-48 -19.5t-48 19.5t-19 48.5q0 30 19 49t48 19z" />
    <glyph glyph-name="uni1EE4" unicode="&#x1ee4;" horiz-adv-x="764" 
d="M196 290q0 -88 50.5 -138.5t137.5 -50.5q86 0 135.5 50t49.5 139v410h118v-410q0 -137 -81 -216t-223 -79t-223.5 79t-81.5 216v410h118v-410zM384 -51q29 0 48 -19t19 -49q0 -29 -19 -48.5t-48 -19.5t-48 19.5t-19 48.5q0 30 19 49t48 19z" />
    <glyph glyph-name="uni1EE5" unicode="&#x1ee5;" horiz-adv-x="653" 
d="M453 532h115v-532h-115v104q-52 -106 -190 -108q-91 0 -143 55t-52 150v331h115v-299q0 -60 33 -94.5t91 -34.5q67 1 106.5 47.5t39.5 118.5v262zM333 -51q29 0 48 -19t19 -49q0 -29 -19 -48.5t-48 -19.5t-48 19.5t-19 48.5q0 30 19 49t48 19z" />
    <glyph glyph-name="uni1EE6" unicode="&#x1ee6;" horiz-adv-x="764" 
d="M274 860q6 39 34.5 61t71.5 22q45 0 72.5 -26t27.5 -67q0 -53 -62 -104l-55 19q59 46 59 81q0 17 -11.5 28.5t-31.5 11.5q-44 0 -51 -44zM196 290q0 -88 50.5 -138.5t137.5 -50.5q86 0 135.5 50t49.5 139v410h118v-410q0 -137 -81 -216t-223 -79t-223.5 79t-81.5 216v410
h118v-410z" />
    <glyph glyph-name="uni1EE7" unicode="&#x1ee7;" horiz-adv-x="653" 
d="M315 718q-44 0 -51 -44l-54 18q6 39 34.5 61t71.5 22q45 0 72.5 -26t27.5 -67q0 -53 -62 -104l-55 19q59 46 59 81q0 17 -11.5 28.5t-31.5 11.5zM453 532h115v-532h-115v104q-52 -106 -190 -108q-91 0 -143 55t-52 150v331h115v-299q0 -60 33 -94.5t91 -34.5
q67 1 106.5 47.5t39.5 118.5v262z" />
    <glyph glyph-name="uni1EE8" unicode="&#x1ee8;" horiz-adv-x="764" 
d="M549 875l-122 -98h-102l106 148zM780 792q0 -51 -25 -92t-68 -64v-346q0 -137 -81 -216t-223 -79t-223.5 79t-81.5 216v410h118v-410q0 -88 50.5 -138.5t137.5 -50.5q86 0 135.5 50t49.5 139v410h60q29 11 46 35.5t17 56.5h88z" />
    <glyph glyph-name="uni1EE9" unicode="&#x1ee9;" horiz-adv-x="653" 
d="M490 707l-122 -98h-102l106 148zM686 611q0 -58 -32 -103t-86 -64v-444h-115v104q-52 -106 -190 -108q-91 0 -143 55t-52 150v331h115v-299q0 -60 33 -94.5t91 -34.5q67 1 106.5 47.5t39.5 118.5v262h106q39 29 39 79h88z" />
    <glyph glyph-name="uni1EEA" unicode="&#x1eea;" horiz-adv-x="764" 
d="M439 777h-102l-122 98l118 50zM780 792q0 -51 -25 -92t-68 -64v-346q0 -137 -81 -216t-223 -79t-223.5 79t-81.5 216v410h118v-410q0 -88 50.5 -138.5t137.5 -50.5q86 0 135.5 50t49.5 139v410h60q29 11 46 35.5t17 56.5h88z" />
    <glyph glyph-name="uni1EEB" unicode="&#x1eeb;" horiz-adv-x="653" 
d="M380 609h-102l-122 98l118 50zM686 611q0 -58 -32 -103t-86 -64v-444h-115v104q-52 -106 -190 -108q-91 0 -143 55t-52 150v331h115v-299q0 -60 33 -94.5t91 -34.5q67 1 106.5 47.5t39.5 118.5v262h106q39 29 39 79h88z" />
    <glyph glyph-name="uni1EEC" unicode="&#x1eec;" horiz-adv-x="764" 
d="M379 886q-44 0 -51 -44l-54 18q6 39 34.5 61t71.5 22q45 0 72.5 -26t27.5 -67q0 -53 -62 -104l-55 19q59 46 59 81q0 17 -11.5 28.5t-31.5 11.5zM780 792q0 -51 -25 -92t-68 -64v-346q0 -137 -81 -216t-223 -79t-223.5 79t-81.5 216v410h118v-410q0 -88 50.5 -138.5
t137.5 -50.5q86 0 135.5 50t49.5 139v410h60q29 11 46 35.5t17 56.5h88z" />
    <glyph glyph-name="uni1EED" unicode="&#x1eed;" horiz-adv-x="653" 
d="M320 718q-44 0 -51 -44l-54 18q6 39 34.5 61t71.5 22q45 0 72.5 -26t27.5 -67q0 -53 -62 -104l-55 19q59 46 59 81q0 17 -11.5 28.5t-31.5 11.5zM686 611q0 -58 -32 -103t-86 -64v-444h-115v104q-52 -106 -190 -108q-91 0 -143 55t-52 150v331h115v-299q0 -60 33 -94.5
t91 -34.5q67 1 106.5 47.5t39.5 118.5v262h106q39 29 39 79h88z" />
    <glyph glyph-name="uni1EEE" unicode="&#x1eee;" horiz-adv-x="764" 
d="M332 844q-37 0 -37 -49h-74q0 131 92 131q30 0 67.5 -27.5t51.5 -27.5q38 0 38 49h73q0 -131 -91 -131q-33 0 -69.5 27.5t-50.5 27.5zM780 792q0 -51 -25 -92t-68 -64v-346q0 -137 -81 -216t-223 -79t-223.5 79t-81.5 216v410h118v-410q0 -88 50.5 -138.5t137.5 -50.5
q86 0 135.5 50t49.5 139v410h60q29 11 46 35.5t17 56.5h88z" />
    <glyph glyph-name="uni1EEF" unicode="&#x1eef;" horiz-adv-x="653" 
d="M273 676q-37 0 -37 -49h-74q0 131 92 131q30 0 67.5 -27.5t51.5 -27.5q38 0 38 49h73q0 -131 -91 -131q-33 0 -69.5 27.5t-50.5 27.5zM686 611q0 -58 -32 -103t-86 -64v-444h-115v104q-52 -106 -190 -108q-91 0 -143 55t-52 150v331h115v-299q0 -60 33 -94.5t91 -34.5
q67 1 106.5 47.5t39.5 118.5v262h106q39 29 39 79h88z" />
    <glyph glyph-name="uni1EF0" unicode="&#x1ef0;" horiz-adv-x="764" 
d="M780 792q0 -51 -25 -92t-68 -64v-346q0 -137 -81 -216t-223 -79t-223.5 79t-81.5 216v410h118v-410q0 -88 50.5 -138.5t137.5 -50.5q86 0 135.5 50t49.5 139v410h60q29 11 46 35.5t17 56.5h88zM384 -51q29 0 48 -19t19 -49q0 -29 -19 -48.5t-48 -19.5t-48 19.5t-19 48.5
q0 30 19 49t48 19z" />
    <glyph glyph-name="uni1EF1" unicode="&#x1ef1;" horiz-adv-x="653" 
d="M686 611q0 -58 -32 -103t-86 -64v-444h-115v104q-52 -106 -190 -108q-91 0 -143 55t-52 150v331h115v-299q0 -60 33 -94.5t91 -34.5q67 1 106.5 47.5t39.5 118.5v262h106q39 29 39 79h88zM333 -51q29 0 48 -19t19 -49q0 -29 -19 -48.5t-48 -19.5t-48 19.5t-19 48.5
q0 30 19 49t48 19z" />
    <glyph glyph-name="Ygrave" unicode="&#x1ef2;" horiz-adv-x="637" 
d="M380 777h-102l-122 98l118 50zM636 700l-257 -467v-233h-117v229l-261 471h119l200 -341l196 341h120z" />
    <glyph glyph-name="ygrave" unicode="&#x1ef3;" horiz-adv-x="531" 
d="M224 757l106 -148h-102l-122 98zM294 -73q-50 -126 -173 -126q-69 0 -123 45l49 89q36 -26 69 -26q54 0 81 59l18 40l-220 524h119l159 -403l148 403h115z" />
    <glyph glyph-name="uni1EF4" unicode="&#x1ef4;" horiz-adv-x="637" 
d="M262 0v229l-261 471h119l200 -341l196 341h120l-257 -467v-233h-117zM321 -51q29 0 48 -19t19 -49q0 -29 -19 -48.5t-48 -19.5t-48 19.5t-19 48.5q0 30 19 49t48 19z" />
    <glyph glyph-name="uni1EF5" unicode="&#x1ef5;" horiz-adv-x="531" 
d="M294 -73q-50 -126 -173 -126q-69 0 -123 45l49 89q36 -26 69 -26q54 0 81 59l18 40l-220 524h119l159 -403l148 403h115zM416 -51q29 0 48 -19t19 -49q0 -29 -19 -48.5t-48 -19.5t-48 19.5t-19 48.5q0 30 19 49t48 19z" />
    <glyph glyph-name="uni1EF6" unicode="&#x1ef6;" horiz-adv-x="637" 
d="M315 886q-44 0 -51 -44l-54 18q6 39 34.5 61t71.5 22q45 0 72.5 -26t27.5 -67q0 -53 -62 -104l-55 19q59 46 59 81q0 17 -11.5 28.5t-31.5 11.5zM636 700l-257 -467v-233h-117v229l-261 471h119l200 -341l196 341h120z" />
    <glyph glyph-name="uni1EF7" unicode="&#x1ef7;" horiz-adv-x="531" 
d="M160 692q6 39 34.5 61t71.5 22q45 0 72.5 -26t27.5 -67q0 -53 -62 -104l-55 19q59 46 59 81q0 17 -11.5 28.5t-31.5 11.5q-44 0 -51 -44zM294 -73q-50 -126 -173 -126q-69 0 -123 45l49 89q36 -26 69 -26q54 0 81 59l18 40l-220 524h119l159 -403l148 403h115z" />
    <glyph glyph-name="uni1EF8" unicode="&#x1ef8;" horiz-adv-x="637" 
d="M268 844q-37 0 -37 -49h-74q0 131 92 131q30 0 67.5 -27.5t51.5 -27.5q38 0 38 49h73q0 -131 -91 -131q-33 0 -69.5 27.5t-50.5 27.5zM636 700l-257 -467v-233h-117v229l-261 471h119l200 -341l196 341h120z" />
    <glyph glyph-name="uni1EF9" unicode="&#x1ef9;" horiz-adv-x="531" 
d="M429 752q0 -131 -91 -131q-33 0 -69.5 27.5t-50.5 27.5q-37 0 -37 -49h-74q0 131 92 131q30 0 67.5 -27.5t51.5 -27.5q38 0 38 49h73zM294 -73q-50 -126 -173 -126q-69 0 -123 45l49 89q36 -26 69 -26q54 0 81 59l18 40l-220 524h119l159 -403l148 403h115z" />
    <glyph glyph-name="uni2007" unicode="&#x2007;" horiz-adv-x="617" 
 />
    <glyph glyph-name="uni2008" unicode="&#x2008;" horiz-adv-x="218" 
 />
    <glyph glyph-name="uni2009" unicode="&#x2009;" horiz-adv-x="200" 
 />
    <glyph glyph-name="uni200A" unicode="&#x200a;" horiz-adv-x="100" 
 />
    <glyph glyph-name="uni200B" unicode="&#x200b;" 
 />
    <glyph glyph-name="uni2010" unicode="&#x2010;" horiz-adv-x="368" 
d="M61 344h246v-79h-246v79z" />
    <glyph glyph-name="figuredash" unicode="&#x2012;" horiz-adv-x="617" 
d="M0 344h617v-80h-617v80z" />
    <glyph glyph-name="endash" unicode="&#x2013;" horiz-adv-x="405" 
d="M0 344h405v-80h-405v80z" />
    <glyph glyph-name="emdash" unicode="&#x2014;" horiz-adv-x="691" 
d="M0 344h691v-80h-691v80z" />
    <glyph glyph-name="uni2015" unicode="&#x2015;" horiz-adv-x="691" 
d="M0 344h691v-80h-691v80z" />
    <glyph glyph-name="quoteleft" unicode="&#x2018;" horiz-adv-x="214" 
d="M132 619q27 -18 27 -52q0 -28 -17.5 -46t-44.5 -18q-25 0 -43 17.5t-18 46.5q0 27 18 53l57 86h59z" />
    <glyph glyph-name="quoteright" unicode="&#x2019;" horiz-adv-x="214" 
d="M109 701q25 0 43 -17.5t18 -46.5q0 -27 -18 -53l-57 -86h-59l38 87q-27 18 -27 52q0 28 17.5 46t44.5 18z" />
    <glyph glyph-name="quotesinglbase" unicode="&#x201a;" horiz-adv-x="214" 
d="M109 121q25 0 43 -17.5t18 -46.5q0 -27 -18 -53l-57 -86h-59l38 87q-27 18 -27 52q0 28 17.5 46t44.5 18z" />
    <glyph glyph-name="quotedblleft" unicode="&#x201c;" horiz-adv-x="363" 
d="M111 706h59l-38 -87q27 -18 27 -52q0 -28 -17.5 -46t-44.5 -18q-25 0 -43 17.5t-18 46.5q0 27 18 53zM281 619q27 -18 27 -52q0 -28 -17.5 -46t-44.5 -18q-25 0 -43 17.5t-18 46.5q0 27 18 53l57 86h59z" />
    <glyph glyph-name="quotedblright" unicode="&#x201d;" horiz-adv-x="363" 
d="M109 701q25 0 43 -17.5t18 -46.5q0 -27 -18 -53l-57 -86h-59l38 87q-27 18 -27 52q0 28 17.5 46t44.5 18zM258 701q25 0 43 -17.5t18 -46.5q0 -27 -18 -53l-57 -86h-59l38 87q-27 18 -27 52q0 28 17.5 46t44.5 18z" />
    <glyph glyph-name="quotedblbase" unicode="&#x201e;" horiz-adv-x="363" 
d="M109 121q25 0 43 -17.5t18 -46.5q0 -27 -18 -53l-57 -86h-59l38 87q-27 18 -27 52q0 28 17.5 46t44.5 18zM258 121q25 0 43 -17.5t18 -46.5q0 -27 -18 -53l-57 -86h-59l38 87q-27 18 -27 52q0 28 17.5 46t44.5 18z" />
    <glyph glyph-name="dagger" unicode="&#x2020;" horiz-adv-x="536" 
d="M212 699h109v-213h200v-106h-200v-570h-109v570h-197v106h197v213z" />
    <glyph glyph-name="daggerdbl" unicode="&#x2021;" horiz-adv-x="536" 
d="M521 380h-200v-231h200v-105h-200v-234h-109v234h-197v105h197v231h-197v106h197v213h109v-213h200v-106z" />
    <glyph glyph-name="bullet" unicode="&#x2022;" horiz-adv-x="281" 
d="M140 366q41 0 68 -27.5t27 -70.5t-27 -71.5t-68 -28.5q-40 0 -67 28.5t-27 71.5t26.5 70.5t67.5 27.5z" />
    <glyph glyph-name="ellipsis" unicode="&#x2026;" horiz-adv-x="608" 
d="M106 117q26 0 43 -17.5t17 -44.5q0 -28 -17 -46t-43 -18t-43 18t-17 46q0 27 17 44.5t43 17.5zM304 117q26 0 43 -17.5t17 -44.5q0 -28 -17 -46t-43 -18t-43 18t-17 46q0 27 17 44.5t43 17.5zM502 117q26 0 43 -17.5t17 -44.5q0 -28 -17 -46t-43 -18t-43 18t-17 46
q0 27 17 44.5t43 17.5z" />
    <glyph glyph-name="perthousand" unicode="&#x2030;" horiz-adv-x="1421" 
d="M223 702q86 0 135.5 -55.5t49.5 -152.5q0 -98 -49.5 -153.5t-135.5 -55.5t-135.5 55.5t-49.5 153.5q0 97 49.5 152.5t135.5 55.5zM685 700h110l-514 -700h-111zM223 635q-52 0 -80 -37t-28 -104q0 -68 28 -104.5t80 -36.5t80.5 37t28.5 104t-28.5 104t-80.5 37zM750 415
q86 0 135.5 -55.5t49.5 -152.5q0 -98 -49.5 -153.5t-135.5 -55.5t-135.5 55.5t-49.5 153.5q0 97 49.5 152.5t135.5 55.5zM1197 415q86 0 135.5 -55.5t49.5 -152.5q0 -98 -49.5 -153.5t-135.5 -55.5t-135.5 55.5t-49.5 153.5q0 97 49.5 152.5t135.5 55.5zM750 348
q-52 0 -80 -37t-28 -104q0 -68 28 -104.5t80 -36.5t80.5 37t28.5 104t-28.5 104t-80.5 37zM1197 348q-52 0 -80 -37t-28 -104q0 -68 28 -104.5t80 -36.5t80.5 37t28.5 104t-28.5 104t-80.5 37z" />
    <glyph glyph-name="minute" unicode="&#x2032;" horiz-adv-x="208" 
d="M57 700h108l-47 -240h-78z" />
    <glyph glyph-name="second" unicode="&#x2033;" horiz-adv-x="373" 
d="M57 700h108l-47 -240h-78zM222 700h108l-47 -240h-78z" />
    <glyph glyph-name="guilsinglleft" unicode="&#x2039;" horiz-adv-x="276" 
d="M139 434h96l-107 -174l107 -174h-96l-116 174z" />
    <glyph glyph-name="guilsinglright" unicode="&#x203a;" horiz-adv-x="288" 
d="M172 87h-96l107 174l-107 174h96l116 -174z" />
    <glyph glyph-name="fraction" unicode="&#x2044;" horiz-adv-x="80" 
d="M238 700h110l-514 -700h-111z" />
    <glyph glyph-name="uni2070" unicode="&#x2070;" horiz-adv-x="447" 
d="M223 768q86 0 135.5 -55.5t49.5 -152.5q0 -98 -49.5 -153.5t-135.5 -55.5t-135.5 55.5t-49.5 153.5q0 97 49.5 152.5t135.5 55.5zM223 701q-52 0 -80 -37t-28 -104q0 -68 28 -104.5t80 -36.5t80.5 37t28.5 104t-28.5 104t-80.5 37z" />
    <glyph glyph-name="uni2074" unicode="&#x2074;" horiz-adv-x="394" 
d="M171 773h80l-139 -254h120v102h79v-102h61v-62h-61v-97h-79v97h-204v59z" />
    <glyph glyph-name="uni2075" unicode="&#x2075;" horiz-adv-x="377" 
d="M134 607q26 7 53 7q71 0 113.5 -32.5t42.5 -87.5q0 -64 -44.5 -102t-118.5 -38q-83 0 -157 48l34 66q53 -50 114 -50q39 0 61 18.5t22 52.5q0 29 -22 45.5t-61 16.5q-71 0 -114 -9v228h268v-66h-191v-97z" />
    <glyph glyph-name="uni2076" unicode="&#x2076;" horiz-adv-x="401" 
d="M234 626q62 0 99 -36t37 -96q0 -64 -42 -101.5t-112 -37.5q-83 0 -130.5 53.5t-47.5 148.5q0 99 54 158.5t144 59.5q67 0 123 -33l-32 -60q-41 25 -92 25q-56 0 -86.5 -34t-30.5 -96q0 -12 1 -18q11 31 41.5 49t73.5 18zM212 423q37 0 58.5 19t21.5 53q0 33 -20.5 51
t-56.5 18q-39 0 -61.5 -20t-22.5 -52q0 -28 21 -48.5t60 -20.5z" />
    <glyph glyph-name="uni2077" unicode="&#x2077;" horiz-adv-x="374" 
d="M32 773h319v-60l-167 -353h-89l165 347h-154v-61h-74v127z" />
    <glyph glyph-name="uni2078" unicode="&#x2078;" horiz-adv-x="407" 
d="M203 776q68 0 108 -29t40 -79q0 -59 -61 -87q39 -14 60.5 -41.5t21.5 -63.5q0 -55 -45 -87t-123 -32t-123.5 31.5t-45.5 86.5q0 36 23 64t63 42q-64 29 -64 90q0 49 39.5 77t106.5 28zM204 720q-37 0 -57 -15t-20 -41q0 -56 77 -56q76 0 76 56q0 26 -20 41t-56 15z
M203 546q-42 0 -65.5 -16.5t-23.5 -45.5q0 -31 23.5 -48t66.5 -17q42 0 65.5 16.5t23.5 47.5q0 30 -23.5 46.5t-66.5 16.5z" />
    <glyph glyph-name="uni2079" unicode="&#x2079;" horiz-adv-x="401" 
d="M185 778q83 0 130.5 -53.5t47.5 -148.5q0 -99 -54 -158.5t-144 -59.5q-67 0 -123 33l32 60q41 -25 92 -25q56 0 86.5 34t30.5 96q0 12 -1 18q-11 -31 -41.5 -49t-73.5 -18q-62 0 -99 36t-37 96q0 64 42 101.5t112 37.5zM186 569q39 0 61.5 20t22.5 52q0 28 -21 48.5
t-60 20.5q-37 0 -58.5 -19t-21.5 -53q0 -33 20.5 -51t56.5 -18z" />
    <glyph glyph-name="uni2080" unicode="&#x2080;" horiz-adv-x="447" 
d="M223 307q86 0 135.5 -55.5t49.5 -152.5q0 -98 -49.5 -153.5t-135.5 -55.5t-135.5 55.5t-49.5 153.5q0 97 49.5 152.5t135.5 55.5zM223 240q-52 0 -80 -37t-28 -104q0 -68 28 -104.5t80 -36.5t80.5 37t28.5 104t-28.5 104t-80.5 37z" />
    <glyph glyph-name="uni2081" unicode="&#x2081;" horiz-adv-x="262" 
d="M16 313h167v-413h-84v345h-83v68z" />
    <glyph glyph-name="uni2082" unicode="&#x2082;" horiz-adv-x="383" 
d="M194 117q49 49 49 83q0 22 -17 34.5t-48 12.5q-57 0 -117 -52l-33 61q77 60 163 60q62 0 100.5 -28.5t38.5 -76.5q0 -59 -80 -136l-108 -108h206v-67h-311v57z" />
    <glyph glyph-name="uni2083" unicode="&#x2083;" horiz-adv-x="355" 
d="M203 136q53 -5 85 -34.5t32 -77.5q0 -59 -43.5 -95.5t-115.5 -36.5q-89 0 -150 46l35 65q47 -47 109 -47q39 0 61 18t22 49q0 61 -84 61h-62v47l112 113h-173v63h269v-49l-119 -120z" />
    <glyph glyph-name="uni2084" unicode="&#x2084;" horiz-adv-x="394" 
d="M171 313h80l-139 -254h120v102h79v-102h61v-62h-61v-97h-79v97h-204v59z" />
    <glyph glyph-name="uni2085" unicode="&#x2085;" horiz-adv-x="377" 
d="M134 143q26 7 53 7q71 0 113.5 -32.5t42.5 -87.5q0 -64 -44.5 -102t-118.5 -38q-83 0 -157 48l34 66q53 -50 114 -50q39 0 61 18.5t22 52.5q0 29 -22 45.5t-61 16.5q-71 0 -114 -9v228h268v-66h-191v-97z" />
    <glyph glyph-name="uni2086" unicode="&#x2086;" horiz-adv-x="401" 
d="M234 161q62 0 99 -36t37 -96q0 -64 -42 -101.5t-112 -37.5q-83 0 -130.5 53.5t-47.5 148.5q0 99 54 158.5t144 59.5q67 0 123 -33l-32 -60q-41 25 -92 25q-56 0 -86.5 -34t-30.5 -96q0 -12 1 -18q11 31 41.5 49t73.5 18zM212 -42q37 0 58.5 19t21.5 53q0 33 -20.5 51
t-56.5 18q-39 0 -61.5 -20t-22.5 -52q0 -28 21 -48.5t60 -20.5z" />
    <glyph glyph-name="uni2087" unicode="&#x2087;" horiz-adv-x="374" 
d="M32 313h319v-60l-167 -353h-89l165 347h-154v-61h-74v127z" />
    <glyph glyph-name="uni2088" unicode="&#x2088;" horiz-adv-x="407" 
d="M203 309q68 0 108 -29t40 -79q0 -59 -61 -87q39 -14 60.5 -41.5t21.5 -63.5q0 -55 -45 -87t-123 -32t-123.5 31.5t-45.5 86.5q0 36 23 64t63 42q-64 29 -64 90q0 49 39.5 77t106.5 28zM204 253q-37 0 -57 -15t-20 -41q0 -56 77 -56q76 0 76 56q0 26 -20 41t-56 15z
M203 79q-42 0 -65.5 -16.5t-23.5 -45.5q0 -31 23.5 -48t66.5 -17q42 0 65.5 16.5t23.5 47.5q0 30 -23.5 46.5t-66.5 16.5z" />
    <glyph glyph-name="uni2089" unicode="&#x2089;" horiz-adv-x="401" 
d="M185 309q83 0 130.5 -53.5t47.5 -148.5q0 -99 -54 -158.5t-144 -59.5q-67 0 -123 33l32 60q41 -25 92 -25q56 0 86.5 34t30.5 96q0 12 -1 18q-11 -31 -41.5 -49t-73.5 -18q-62 0 -99 36t-37 96q0 64 42 101.5t112 37.5zM186 100q39 0 61.5 20t22.5 52q0 28 -21 48.5
t-60 20.5q-37 0 -58.5 -19t-21.5 -53q0 -33 20.5 -51t56.5 -18z" />
    <glyph glyph-name="colonmonetary" unicode="&#x20a1;" horiz-adv-x="697" 
d="M669 110q-71 -70 -168 -99l-21 -153h-88l19 137h-13q-24 0 -45 3l-20 -140h-88l22 159q-105 38 -169 128t-64 206q0 118 68.5 208.5t180.5 125.5l22 148h88l-19 -131q9 1 28 1q20 0 31 -1l19 131h88l-22 -148q88 -29 150 -90l-69 -86q-38 41 -90 65t-105 24
q-105 0 -177.5 -71.5t-72.5 -174.5q0 -104 72.5 -175.5t177.5 -71.5q109 0 195 83z" />
    <glyph glyph-name="franc" unicode="&#x20a3;" horiz-adv-x="573" 
d="M559 594h-351v-202h318v-105h-318v-106h230v-61h-230v-120h-118v120h-75v61h75v519h470z" />
    <glyph glyph-name="lira" unicode="&#x20a4;" horiz-adv-x="547" 
d="M238 219v-123h280v-96h-481v96h83v123h-83v79h83v66h-83v79h83v40q0 106 55.5 164t157.5 58q119 0 198 -90l-47 -92q-64 76 -139 76q-107 0 -107 -119v-37h176v-79h-176v-66h176v-79h-176z" />
    <glyph glyph-name="uni20A6" unicode="&#x20a6;" horiz-adv-x="757" 
d="M737 395h-75v-91h75v-82h-75v-222h-116l-139 222h-194v-222h-118v222h-75v82h75v91h-75v82h75v223h116l140 -223h195v223h116v-223h75v-82zM213 532v-55h34zM213 304h143l-57 91h-86v-91zM546 304v91h-143l57 -91h86zM546 167v55h-35z" />
    <glyph glyph-name="peseta" unicode="&#x20a7;" horiz-adv-x="1520" 
d="M345 700q132 0 204.5 -62.5t72.5 -176.5q0 -119 -72.5 -184.5t-204.5 -65.5h-135v-211h-118v700h253zM922 99q35 0 80 23l29 -88q-66 -39 -131 -39t-107 39t-42 116v277h-75v85h75v146h114v-146h147v-85h-147v-256q0 -40 14 -56t43 -16zM340 315q169 0 169 143
q0 138 -169 138h-130v-281h130zM1207 392q0 -27 29 -44t70.5 -28.5t83 -27t70.5 -50.5t29 -89q0 -77 -58.5 -117t-145.5 -40q-133 0 -214 73l41 81q34 -30 83.5 -47.5t94.5 -17.5q87 0 87 58q0 30 -29 48.5t-70 30t-82 26.5t-69.5 49t-28.5 87q0 76 56 114.5t140 38.5
q109 0 186 -53l-42 -84q-75 46 -153 46t-78 -54z" />
    <glyph glyph-name="uni20A9" unicode="&#x20a9;" horiz-adv-x="986" 
d="M986 407h-95l-30 -100h115v-80h-138l-66 -227h-121l-62 227h-189l-63 -227h-122l-66 227h-139v80h116l-28 100h-98v80h74l-61 213h127l52 -213h188l59 213h116l59 -213h188l52 213h122l-62 -213h72v-80zM495 567l-22 -80h44zM423 307h144l-28 100h-21l-22 2l-23 -2h-23z
M211 407l25 -100h94l28 100h-147zM759 307l24 100h-146l28 -100h94zM280 126l28 101h-53zM715 126l24 101h-52z" />
    <glyph glyph-name="dong" unicode="&#x20ab;" horiz-adv-x="681" 
d="M661 682v-66h-69v-616h-115v91q-59 -96 -187 -96q-114 0 -184.5 75.5t-70.5 197.5q0 120 70 194.5t183 74.5q128 0 189 -97v176h-99v66h99v60h115v-60h69zM314 91q72 0 117.5 48.5t45.5 124.5q0 77 -45.5 126t-117.5 49t-117.5 -49t-46.5 -126q1 -76 46.5 -124.5
t117.5 -48.5zM106 -136v79h428v-79h-428z" />
    <glyph glyph-name="Euro" unicode="&#x20ac;" horiz-adv-x="791" 
d="M694 188l69 -78q-53 -53 -125 -84t-146 -31q-121 0 -215 66t-130 174h-110v64h95q-4 23 -4 52q0 30 4 53h-95v64h111q37 105 132 170t217 65q74 0 144.5 -29t120.5 -79l-68 -86q-84 89 -196 89q-71 0 -130 -35.5t-91 -94.5h251v-64h-275q-5 -28 -5 -52q0 -27 6 -53h274
v-64h-251q32 -59 91 -94.5t130 -35.5q108 0 196 83z" />
    <glyph glyph-name="uni20AD" unicode="&#x20ad;" horiz-adv-x="657" 
d="M652 0h-142l-302 317v-317h-118v310h-75v84h75v306h118v-315l287 315h139l-283 -306h235v-84h-234z" />
    <glyph glyph-name="uni20B1" unicode="&#x20b1;" horiz-adv-x="741" 
d="M726 545v-76h-75v-18q0 -14 -1 -21h76v-76h-90q-52 -155 -262 -155h-161v-199h-118v354h-75v76h75v39h-75v76h75v155h279q103 0 170 -40t93 -115h89zM369 595h-156v-55h299q-40 55 -143 55zM213 474v-49h324q1 8 1 25q0 16 -1 24h-324zM369 304q101 0 143 55h-299v-55
h156z" />
    <glyph glyph-name="uni20B2" unicode="&#x20b2;" horiz-adv-x="723" 
d="M571 149v195h103v-258q-99 -74 -226 -88v-140h-88v139q-140 15 -233 114.5t-93 238.5q0 137 92 235.5t234 114.5v133h88v-132q133 -12 230 -96l-67 -87q-86 80 -202 80q-107 0 -181 -72t-74 -176q0 -105 74.5 -177t181.5 -72q81 0 161 48z" />
    <glyph glyph-name="uni20B5" unicode="&#x20b5;" horiz-adv-x="697" 
d="M669 110q-96 -96 -231 -113v-139h-88v140q-137 17 -226.5 116t-89.5 237q0 136 89.5 234t226.5 115v133h88v-132q135 -12 230 -106l-69 -86q-38 41 -90 65t-105 24q-105 0 -177.5 -71.5t-72.5 -174.5q0 -104 72.5 -175.5t177.5 -71.5q109 0 195 83z" />
    <glyph glyph-name="uni20B9" unicode="&#x20b9;" horiz-adv-x="581" 
d="M561 596h-115q29 -42 36 -91h79v-98h-79q-18 -110 -109 -158l188 -249h-134l-161 215q-25 -4 -62 -4h-174v105h174q135 0 163 91h-337v98h338q-28 90 -164 90h-174v105h531v-104z" />
    <glyph glyph-name="uni20BA" unicode="&#x20ba;" horiz-adv-x="682" 
d="M537 350l119 1q0 -152 -103 -251.5t-262 -99.5h-184v314l-75 -22v81l75 22v64l-75 -22v81l75 22v160h118v-126l362 104v-81l-362 -104v-64l362 104v-81l-362 -104v-242h72q103 0 171.5 69t68.5 175z" />
    <glyph glyph-name="uni20BC" unicode="&#x20bc;" horiz-adv-x="742" 
d="M431 605q124 -20 202.5 -111t78.5 -219v-275h-121v275q0 82 -44.5 142t-115.5 79v-496h-120v496q-72 -20 -116.5 -79.5t-44.5 -141.5v-275h-120v275q0 129 78.5 219.5t202.5 110.5v95h120v-95z" />
    <glyph glyph-name="uni20BD" unicode="&#x20bd;" horiz-adv-x="673" 
d="M371 226h-161v-66h250v-61h-250v-99h-118v99h-75v61h75v540h279q132 0 204.5 -60.5t72.5 -171.5q0 -115 -72.5 -178.5t-204.5 -63.5zM210 595v-264h156q169 0 169 135q0 129 -169 129h-156z" />
    <glyph glyph-name="uni2113" unicode="&#x2113;" horiz-adv-x="467" 
d="M149 502q19 102 65 153t108 51q51 0 80.5 -33t29.5 -93q0 -163 -240 -361q-11 -69 3 -102t57 -33q64 0 134 85l40 -48q-83 -125 -200 -125q-129 0 -129 164l-51 -35l-20 56l81 59zM207 317q68 60 111 130.5t43 130.5q0 28 -11 43t-30 15q-58 0 -80 -124z" />
    <glyph glyph-name="uni2116" unicode="&#x2116;" horiz-adv-x="1199" 
d="M955 710q77 0 125.5 -44t48.5 -116t-48.5 -116t-125.5 -44t-125 44t-48 116t48 116t125 44zM92 700h116l375 -503v503h116v-700h-116l-373 502v-502h-118v700zM955 644q-41 0 -66.5 -26t-25.5 -69t25.5 -69t66.5 -26t66 26t25 69t-25 69t-66 26zM833 321h246v-79h-246v79
z" />
    <glyph glyph-name="trademark" unicode="&#x2122;" horiz-adv-x="886" 
d="M-5 700h330v-74h-123v-346h-85v346h-122v74zM382 700h98l128 -267l128 267h98v-420h-77v297l-121 -254h-56l-120 254v-297h-78v420z" />
    <glyph glyph-name="uni2126" unicode="&#x2126;" horiz-adv-x="882" 
d="M541 107q76 42 115.5 109t39.5 140q0 101 -69 173t-186 72q-116 0 -185 -71.5t-69 -172.5q0 -73 39.5 -140t115.5 -110v-107h-333v100h210q-61 47 -99 122.5t-38 150.5q0 143 102 237.5t257 94.5t257.5 -94.5t102.5 -237.5q0 -75 -38.5 -151t-98.5 -122h209v-100h-332
v107z" />
    <glyph glyph-name="estimated" unicode="&#x212e;" horiz-adv-x="809" 
d="M197 312q-5 0 -5 -4v-164q0 -9 8 -19q83 -89 206 -89q63 0 119.5 26.5t95.5 72.5h49q-46 -54 -116 -85.5t-149 -31.5q-139 0 -237 88t-98 213t98 213.5t237 88.5t237 -88.5t98 -213.5v-7h-543zM618 498q0 11 -9 20q-85 85 -203 85q-120 0 -205 -88q-9 -9 -9 -20v-162
q0 -5 5 -5h416q5 0 5 5v165z" />
    <glyph glyph-name="oneeighth" unicode="&#x215b;" horiz-adv-x="834" 
d="M16 700h167v-413h-84v345h-83v68zM565 700h110l-514 -700h-111zM630 416q68 0 108 -29t40 -79q0 -59 -61 -87q39 -14 60.5 -41.5t21.5 -63.5q0 -55 -45 -87t-123 -32t-123.5 31.5t-45.5 86.5q0 36 23 64t63 42q-64 29 -64 90q0 49 39.5 77t106.5 28zM631 360
q-37 0 -57 -15t-20 -41q0 -56 77 -56q76 0 76 56q0 26 -20 41t-56 15zM630 186q-42 0 -65.5 -16.5t-23.5 -45.5q0 -31 23.5 -48t66.5 -17q42 0 65.5 16.5t23.5 47.5q0 30 -23.5 46.5t-66.5 16.5z" />
    <glyph glyph-name="threeeighths" unicode="&#x215c;" horiz-adv-x="896" 
d="M627 700h110l-514 -700h-111zM203 528q53 -5 85 -34.5t32 -77.5q0 -59 -43.5 -95.5t-115.5 -36.5q-89 0 -150 46l35 65q47 -47 109 -47q39 0 61 18t22 49q0 61 -84 61h-62v47l112 113h-173v63h269v-49l-119 -120zM692 416q68 0 108 -29t40 -79q0 -59 -61 -87
q39 -14 60.5 -41.5t21.5 -63.5q0 -55 -45 -87t-123 -32t-123.5 31.5t-45.5 86.5q0 36 23 64t63 42q-64 29 -64 90q0 49 39.5 77t106.5 28zM693 360q-37 0 -57 -15t-20 -41q0 -56 77 -56q76 0 76 56q0 26 -20 41t-56 15zM692 186q-42 0 -65.5 -16.5t-23.5 -45.5
q0 -31 23.5 -48t66.5 -17q42 0 65.5 16.5t23.5 47.5q0 30 -23.5 46.5t-66.5 16.5z" />
    <glyph glyph-name="fiveeighths" unicode="&#x215d;" horiz-adv-x="914" 
d="M134 537q26 7 53 7q71 0 113.5 -32.5t42.5 -87.5q0 -64 -44.5 -102t-118.5 -38q-83 0 -157 48l34 66q53 -50 114 -50q39 0 61 18.5t22 52.5q0 29 -22 45.5t-61 16.5q-71 0 -114 -9v228h268v-66h-191v-97zM645 700h110l-514 -700h-111zM710 416q68 0 108 -29t40 -79
q0 -59 -61 -87q39 -14 60.5 -41.5t21.5 -63.5q0 -55 -45 -87t-123 -32t-123.5 31.5t-45.5 86.5q0 36 23 64t63 42q-64 29 -64 90q0 49 39.5 77t106.5 28zM711 360q-37 0 -57 -15t-20 -41q0 -56 77 -56q76 0 76 56q0 26 -20 41t-56 15zM710 186q-42 0 -65.5 -16.5
t-23.5 -45.5q0 -31 23.5 -48t66.5 -17q42 0 65.5 16.5t23.5 47.5q0 30 -23.5 46.5t-66.5 16.5z" />
    <glyph glyph-name="seveneighths" unicode="&#x215e;" horiz-adv-x="881" 
d="M32 700h319v-60l-167 -353h-89l165 347h-154v-61h-74v127zM612 700h110l-514 -700h-111zM677 416q68 0 108 -29t40 -79q0 -59 -61 -87q39 -14 60.5 -41.5t21.5 -63.5q0 -55 -45 -87t-123 -32t-123.5 31.5t-45.5 86.5q0 36 23 64t63 42q-64 29 -64 90q0 49 39.5 77
t106.5 28zM678 360q-37 0 -57 -15t-20 -41q0 -56 77 -56q76 0 76 56q0 26 -20 41t-56 15zM677 186q-42 0 -65.5 -16.5t-23.5 -45.5q0 -31 23.5 -48t66.5 -17q42 0 65.5 16.5t23.5 47.5q0 30 -23.5 46.5t-66.5 16.5z" />
    <glyph glyph-name="partialdiff" unicode="&#x2202;" horiz-adv-x="612" 
d="M56 642q99 63 214 63q136 0 216.5 -99t80.5 -264q0 -164 -75.5 -255.5t-209.5 -91.5q-112 0 -179 63.5t-67 170.5q0 102 61.5 163t164.5 61q72 0 121.5 -32.5t68.5 -88.5q9 130 -41 202t-149 72q-89 0 -160 -54zM283 359q-64 0 -100.5 -34t-36.5 -94q0 -63 38.5 -98.5
t103.5 -35.5q70 0 107.5 39t37.5 90q0 57 -40.5 95t-109.5 38z" />
    <glyph glyph-name="emptyset" unicode="&#x2205;" horiz-adv-x="478" 
d="M478 513l-66 -62q42 -58 42 -126q0 -88 -62.5 -151t-148.5 -63q-77 0 -136 51l-70 -66l-37 42l71 65q-38 55 -38 122q0 87 61.5 149.5t148.5 62.5q75 0 135 -50l69 64zM111 325q0 -35 19 -67l188 174q-32 23 -75 23q-55 0 -93.5 -38t-38.5 -92zM376 325q0 40 -22 71
l-188 -178q35 -24 77 -24q55 0 94 38.5t39 92.5z" />
    <glyph glyph-name="uni2206" unicode="&#x2206;" horiz-adv-x="680" 
d="M0 0v79l281 621h121l278 -621v-79h-680zM129 100h419l-210 474z" />
    <glyph glyph-name="product" unicode="&#x220f;" horiz-adv-x="750" 
d="M92 742h566v-936h-115v838h-336v-838h-115v936z" />
    <glyph glyph-name="summation" unicode="&#x2211;" horiz-adv-x="611" 
d="M40 743h558v-106h-422l277 -330l-279 -339h434v-106h-576v91l294 353l-286 345v92z" />
    <glyph glyph-name="minus" unicode="&#x2212;" horiz-adv-x="498" 
d="M35 364h428v-79h-428v79z" />
    <glyph glyph-name="uni2215" unicode="&#x2215;" horiz-adv-x="331" 
d="M296 816h98l-317 -933h-98z" />
    <glyph glyph-name="uni2219" unicode="&#x2219;" horiz-adv-x="281" 
d="M140 366q41 0 68 -27.5t27 -70.5t-27 -71.5t-68 -28.5q-40 0 -67 28.5t-27 71.5t26.5 70.5t67.5 27.5z" />
    <glyph glyph-name="radical" unicode="&#x221a;" horiz-adv-x="689" 
d="M576 750h110l-278 -904h-123l-151 456h-123v97h202l134 -428z" />
    <glyph glyph-name="infinity" unicode="&#x221e;" horiz-adv-x="875" 
d="M647 503q83 0 138 -57t55 -144t-55 -144.5t-138 -57.5q-75 0 -121.5 35.5t-87.5 99.5q-40 -64 -87 -99.5t-123 -35.5q-83 0 -138 57.5t-55 143.5q0 87 55 144.5t138 57.5q75 0 121.5 -35t87.5 -99q40 64 87 99t123 35zM647 184q49 0 81 33.5t32 84.5t-32 84.5t-81 33.5
q-58 0 -95.5 -30.5t-73.5 -88.5q36 -57 73.5 -87t95.5 -30zM228 184q58 0 95 30t74 88q-36 57 -73.5 87t-95.5 30q-49 0 -81 -33t-32 -85q0 -51 32 -84t81 -33z" />
    <glyph glyph-name="integral" unicode="&#x222b;" horiz-adv-x="342" 
d="M332 743q-25 11 -50 11q-41 0 -58.5 -27t-17.5 -93q0 -58 11 -268t11 -276q0 -118 -34.5 -168t-116.5 -50q-49 0 -85 21l15 80q32 -16 57 -16q42 0 60 29t18 96q0 66 -11.5 274.5t-11.5 267.5q0 118 34.5 168t115.5 50q35 0 77 -19z" />
    <glyph glyph-name="approxequal" unicode="&#x2248;" horiz-adv-x="498" 
d="M433 505q0 -140 -97 -140q-37 0 -85.5 28.5t-65.5 28.5q-39 0 -39 -51h-80q0 140 97 140q35 0 84.5 -28.5t67.5 -28.5q39 0 39 51h79zM433 284q0 -140 -97 -140q-37 0 -85.5 28.5t-65.5 28.5q-39 0 -39 -50h-80q0 140 97 140q35 0 84.5 -28.5t67.5 -28.5q39 0 39 50h79z
" />
    <glyph glyph-name="notequal" unicode="&#x2260;" horiz-adv-x="498" 
d="M463 390h-155l-41 -131h196v-79h-221l-47 -149h-88l47 149h-119v79h144l41 131h-185v79h210l46 144h88l-46 -144h130v-79z" />
    <glyph glyph-name="lessequal" unicode="&#x2264;" horiz-adv-x="498" 
d="M463 623v-87l-351 -143l351 -145v-87l-428 182v98zM35 99h428v-79h-428v79z" />
    <glyph glyph-name="greaterequal" unicode="&#x2265;" horiz-adv-x="498" 
d="M35 166v87l351 143l-351 145v87l428 -182v-98zM35 99h428v-79h-428v79z" />
    <glyph glyph-name="lozenge" unicode="&#x25ca;" horiz-adv-x="536" 
d="M268 676l233 -346l-234 -348l-232 348zM268 515l-127 -185l126 -185l128 185z" />
    <glyph glyph-name="A.ss01" horiz-adv-x="766" 
d="M78 409q0 137 81.5 216t222.5 79q143 0 225 -79t82 -216v-409h-117v187h-376v-187h-118v409zM572 409q-1 88 -51 138.5t-138 50.5t-138 -50.5t-49 -138.5l-1 -117h377v117z" />
    <glyph glyph-name="Aacute.ss01" horiz-adv-x="766" 
d="M422 925l118 -50l-122 -98h-102zM78 409q0 137 81.5 216t222.5 79q143 0 225 -79t82 -216v-409h-117v187h-376v-187h-118v409zM572 409q-1 88 -51 138.5t-138 50.5t-138 -50.5t-49 -138.5l-1 -117h377v117z" />
    <glyph glyph-name="Abreve.ss01" horiz-adv-x="766" 
d="M320 916q2 -29 19.5 -47t43.5 -18t43.5 18t19.5 47h78q-2 -63 -41.5 -102.5t-99.5 -39.5t-99.5 39.5t-41.5 102.5h78zM78 409q0 137 81.5 216t222.5 79q143 0 225 -79t82 -216v-409h-117v187h-376v-187h-118v409zM572 409q-1 88 -51 138.5t-138 50.5t-138 -50.5
t-49 -138.5l-1 -117h377v117z" />
    <glyph glyph-name="uni1EAE.ss01" horiz-adv-x="766" 
d="M444 1091l118 -49l-122 -96h-102zM320 914q2 -29 19.5 -47t43.5 -18t43.5 18t19.5 47h78q-2 -62 -41.5 -100.5t-99.5 -38.5t-99.5 38.5t-41.5 100.5h78zM78 409q0 137 81.5 216t222.5 79q143 0 225 -79t82 -216v-409h-117v187h-376v-187h-118v409zM572 409
q-1 88 -51 138.5t-138 50.5t-138 -50.5t-49 -138.5l-1 -117h377v117z" />
    <glyph glyph-name="uni1EB6.ss01" horiz-adv-x="766" 
d="M524 913q-2 -62 -41.5 -100t-99.5 -38t-99.5 38t-41.5 100h78q2 -29 19.5 -47t43.5 -18t43.5 18t19.5 47h78zM78 409q0 137 81.5 216t222.5 79q143 0 225 -79t82 -216v-409h-117v187h-376v-187h-118v409zM572 409q-1 88 -51 138.5t-138 50.5t-138 -50.5t-49 -138.5
l-1 -117h377v117zM384 -51q29 0 48 -19t19 -49q0 -29 -19 -48.5t-48 -19.5t-48 19.5t-19 48.5q0 30 19 49t48 19z" />
    <glyph glyph-name="uni1EB0.ss01" horiz-adv-x="766" 
d="M321 1092l106 -145h-102l-122 96zM320 914q2 -29 19.5 -47t43.5 -18t43.5 18t19.5 47h78q-2 -62 -41.5 -100.5t-99.5 -38.5t-99.5 38.5t-41.5 100.5h78zM78 409q0 137 81.5 216t222.5 79q143 0 225 -79t82 -216v-409h-117v187h-376v-187h-118v409zM572 409
q-1 88 -51 138.5t-138 50.5t-138 -50.5t-49 -138.5l-1 -117h377v117z" />
    <glyph glyph-name="uni1EB2.ss01" horiz-adv-x="766" 
d="M285 1038q6 38 34.5 60t71.5 22q45 0 72.5 -26t27.5 -66q0 -55 -62 -104l-55 19q59 46 59 81q0 17 -11.5 28.5t-31.5 11.5q-44 0 -51 -45zM320 914q2 -29 19.5 -47t43.5 -18t43.5 18t19.5 47h78q-2 -62 -41.5 -100.5t-99.5 -38.5t-99.5 38.5t-41.5 100.5h78zM78 409
q0 137 81.5 216t222.5 79q143 0 225 -79t82 -216v-409h-117v187h-376v-187h-118v409zM572 409q-1 88 -51 138.5t-138 50.5t-138 -50.5t-49 -138.5l-1 -117h377v117z" />
    <glyph glyph-name="uni1EB4.ss01" horiz-adv-x="766" 
d="M542 1063q0 -127 -91 -127q-33 0 -69.5 27t-50.5 27q-37 0 -37 -48h-74q0 128 92 128q30 0 67.5 -27.5t51.5 -27.5q38 0 38 48h73zM320 914q2 -29 19.5 -47t43.5 -18t43.5 18t19.5 47h78q-2 -62 -41.5 -100.5t-99.5 -38.5t-99.5 38.5t-41.5 100.5h78zM78 409
q0 137 81.5 216t222.5 79q143 0 225 -79t82 -216v-409h-117v187h-376v-187h-118v409zM572 409q-1 88 -51 138.5t-138 50.5t-138 -50.5t-49 -138.5l-1 -117h377v117z" />
    <glyph glyph-name="Acircumflex.ss01" horiz-adv-x="766" 
d="M330 920h106l103 -141h-94l-62 88l-62 -88h-94zM78 409q0 137 81.5 216t222.5 79q143 0 225 -79t82 -216v-409h-117v187h-376v-187h-118v409zM572 409q-1 88 -51 138.5t-138 50.5t-138 -50.5t-49 -138.5l-1 -117h377v117z" />
    <glyph glyph-name="uni1EA4.ss01" horiz-adv-x="766" 
d="M600 1029l100 -49l-122 -96h-84zM330 919h106l103 -137h-94l-62 86l-62 -86h-94zM78 409q0 137 81.5 216t222.5 79q143 0 225 -79t82 -216v-409h-117v187h-376v-187h-118v409zM572 409q-1 88 -51 138.5t-138 50.5t-138 -50.5t-49 -138.5l-1 -117h377v117z" />
    <glyph glyph-name="uni1EAC.ss01" horiz-adv-x="766" 
d="M436 919l103 -138h-94l-62 86l-62 -86h-94l103 138h106zM78 409q0 137 81.5 216t222.5 79q143 0 225 -79t82 -216v-409h-117v187h-376v-187h-118v409zM572 409q-1 88 -51 138.5t-138 50.5t-138 -50.5t-49 -138.5l-1 -117h377v117zM384 -51q29 0 48 -19t19 -49
q0 -29 -19 -48.5t-48 -19.5t-48 19.5t-19 48.5q0 30 19 49t48 19z" />
    <glyph glyph-name="uni1EA6.ss01" horiz-adv-x="766" 
d="M513 1029l106 -145h-84l-122 96zM330 919h106l103 -137h-94l-62 86l-62 -86h-94zM78 409q0 137 81.5 216t222.5 79q143 0 225 -79t82 -216v-409h-117v187h-376v-187h-118v409zM572 409q-1 88 -51 138.5t-138 50.5t-138 -50.5t-49 -138.5l-1 -117h377v117z" />
    <glyph glyph-name="uni1EA8.ss01" horiz-adv-x="766" 
d="M405 986q6 38 34.5 60t71.5 22q45 0 72.5 -26t27.5 -66q0 -55 -62 -104l-55 19q59 46 59 81q0 17 -11.5 28.5t-31.5 11.5q-44 0 -51 -45zM330 919h106l103 -137h-94l-62 86l-62 -86h-94zM78 409q0 137 81.5 216t222.5 79q143 0 225 -79t82 -216v-409h-117v187h-376v-187
h-118v409zM572 409q-1 88 -51 138.5t-138 50.5t-138 -50.5t-49 -138.5l-1 -117h377v117z" />
    <glyph glyph-name="uni1EAA.ss01" horiz-adv-x="766" 
d="M539 1064q0 -127 -91 -127q-33 0 -69.5 27t-50.5 27q-37 0 -37 -49h-74q0 128 92 128q30 0 67.5 -27.5t51.5 -27.5q38 0 38 49h73zM330 919h106l103 -137h-94l-62 86l-62 -86h-94zM78 409q0 137 81.5 216t222.5 79q143 0 225 -79t82 -216v-409h-117v187h-376v-187h-118
v409zM572 409q-1 88 -51 138.5t-138 50.5t-138 -50.5t-49 -138.5l-1 -117h377v117z" />
    <glyph glyph-name="uni0200.ss01" horiz-adv-x="766" 
d="M272 931l83 -154h-89l-92 110zM437 931l83 -154h-89l-92 110zM78 409q0 137 81.5 216t222.5 79q143 0 225 -79t82 -216v-409h-117v187h-376v-187h-118v409zM572 409q-1 88 -51 138.5t-138 50.5t-138 -50.5t-49 -138.5l-1 -117h377v117z" />
    </font>
</defs>
</svg>
